Ссылка на приватное зеркало нашего сайта всего за 1$. Внимание количество ограничено!!!

2 сезон

iTunes

1 сезон

1

2 сезон

2 сезон

iTunes

1 сезон

RePack

30

Новинка

ВАЖНО

ИГРА 18+

pack

RePack

MK11
pack

Забери бонус

RePack

jed

!!Акция!!

Alien_Rage

RePack

fifa19

RePack

Assassins Creed: Odyssey

RePack

NEED FOR SPEED™ PAYBACK

4 сезон

9 сезон

Бесстыжие 9 сезон

Все сериалы

все сериалы на PB.wtf

RePack

FAR CRY 5
  

Ганнибал / Hannibal / Сезон: 3 / Серии 1-13 из 13 (Майкл Раймер / Michael Rymer, Винченцо Натали / Vincenzo Natali, Дэвид Слэйд / David Slade) [2015, США, детектив, триллер, криминал, WEB-DL 720p] MVO [BaibaKo] pb.wtf

Ганнибал через торрент pb.wtf

Размер: 18.37 GB | Добавлен: 5 лет 2 мес. назад | Торрент скачан:65 раз
Скачать  

06-06-2015 01:45 Ганнибал Скачать торрент  

Ганнибал / Hannibal
«Как всё начиналось...»


  • Год выпуска: 2015
  • Страна: США
  • Жанр: детектив, триллер, криминал, драма
  • Продолжительность: 00:43:07 (Серия)
  • Перевод: Профессиональный многоголосый закадровый [BaibaKo]

  • Режиссер: Майкл Раймер / Michael Rymer, Винченцо Натали / Vincenzo Natali, Дэвид Слэйд / David Slade
  • В ролях:

    Мадс Миккельсен (Dr. Hannibal Lecter), Хью Дэнси (Will Graham), Лоренс Фишбёрн (Jack Crawford), Каролин Давернас (Dr. Alana Bloom), Лара Джин Чоростецки (Freddie Lounds), Джиллиан Андерсон (Dr. Bedelia Du Maurier), Скотт Томпсон (Jimmy Price), Аарон Абрамс (Brian Zeller), Эттьенн Парк (Beverly Katz), Кейси Рол (Abigail Hobbs), Владимир Джон Кабрт (Garret Jacob Hobbs), Рауль Эспарза (Dr. Frederick Chilton)

  • Описание:
    Уилл Грэм - одаренный профайлер, который вместе с ФБР разыскивает серийного убийцу. Уникальный способ мышления Грэма дает ему удивительную способность глубоко проникаться чувствами другого человека, даже психопата. Он может понять, что ими движет. Но когда ум преследуемого убийцы оказывается слишком сложным, он прибегает к помощи доктора Лектера, одного из ведущих психиатрических умов в стране.
  • Рейтинг:



  • Качество: WEB-DL 720p
  • Формат: :MKV
  • Видео кодек: AVC
  • Аудио кодек: AC3
  • Видео: 1280x718 (16:9), 3994 kbps, 23,976 fps, 0,181 bpp
  • Аудио №1: русский / 5.1 / 48 kHz / 384 kbps / 16 bit |[BaibaKo]|
  • Аудио №2: английский / 5.1 / 48 kHz / 384 kbps / 16 bit
  • Релиз от: GEKADOL

    Код:

    Внимание! Раздача ведётся путём добавления новых серий; при каждом добавлении создаётся новый торрент. Чтобы начать докачку новой серии, пользователям необходимо сделать следующее:
    (1) остановить скачивание,
    (2) удалить старый торрент у себя из клиента (старые серии удалять не надо),
    (3) скачать новый торрент и запустить его у себя в клиенте вместо старого, при этом указать клиенту путь в старую папку куда и должно происходить скачивание новых серий.
    Ваш клиент при этом должен произвести хеширование (проверку) старой папки (если не производит сам - помогите ему сделать это), и будет докачивать только те серии которых у вас ещё нет. Старые серии при этом не удаляются, а продолжают раздаваться!
    Eсли вы уже удалили старые серии, то предотвратить повторную закачку старых серий можно, отжав галочку в соответствующих местах при запуске нового торрента. По возможности, желательно не удалять старые серии как можно дольше чтобы релизёр не столько продолжал раздавать старые серии, а смог сконцентрироваться на новых.


    Код:

    General
    Unique ID                                : 242864968753270317686535085805222151955 (0xB6B617718E0A113EAEEB578BE0B6C713)
    Complete name                            : F:\Hannibal.s03e01.HD720p.WEB-DL.Rus.Eng.BaibaKo.tv.mkv
    Format                                   : Matroska
    Format version                           : Version 4 / Version 2
    File size                                : 1.46 GiB
    Duration                                 : 43mn 7s
    Overall bit rate                         : 4 860 Kbps
    Encoded date                             : UTC 2015-06-05 21:49:35
    Writing application                      : mkvmerge v7.9.0 ('Birds') 64bit
    Writing library                          : libebml v1.3.1 + libmatroska v1.4.2
    DURATION                                 : 00:43:07.936000000
    NUMBER_OF_FRAMES                         : 80873
    NUMBER_OF_BYTES                          : 124220928
    _STATISTICS_WRITING_APP                  : mkvmerge v7.9.0 ('Birds') 64bit
    _STATISTICS_WRITING_DATE_UTC             : 2015-06-05 21:49:35
    _STATISTICS_TAGS                         : BPS DURATION NUMBER_OF_FRAMES NUMBER_OF_BYTES

    Video
    ID                                       : 1
    Format                                   : AVC
    Format/Info                              : Advanced Video Codec
    Format profile                           : High@L3.1
    Format settings, CABAC                   : No
    Format settings, ReFrames                : 2 frames
    Codec ID                                 : V_MPEG4/ISO/AVC
    Duration                                 : 43mn 7s
    Bit rate                                 : 3 995 Kbps
    Width                                    : 1 280 pixels
    Height                                   : 718 pixels
    Display aspect ratio                     : 16:9
    Frame rate                               : 23.976 fps
    Color space                              : YUV
    Chroma subsampling                       : 4:2:0
    Bit depth                                : 8 bits
    Scan type                                : Progressive
    Bits/(Pixel*Frame)                       : 0.181
    Stream size                              : 1.20 GiB (82%)
    Language                                 : English
    Default                                  : Yes
    Forced                                   : No
    Color primaries                          : BT.709-5, BT.1361, IEC 61966-2-4, SMPTE RP177
    Transfer characteristics                 : BT.709-5, BT.1361
    Matrix coefficients                      : BT.709-5, BT.1361, IEC 61966-2-4 709, SMPTE RP177

    Audio #1
    ID                                       : 2
    Format                                   : AC-3
    Format/Info                              : Audio Coding 3
    Mode extension                           : CM (complete main)
    Codec ID                                 : A_AC3
    Duration                                 : 43mn 7s
    Bit rate mode                            : Constant
    Bit rate                                 : 384 Kbps
    Channel(s)                               : 6 channels
    Channel positions                        : Front: L C R, Side: L R, LFE
    Sampling rate                            : 48.0 KHz
    Bit depth                                : 16 bits
    Compression mode                         : Lossy
    Stream size                              : 118 MiB (8%)
    Language                                 : Russian
    Default                                  : Yes
    Forced                                   : No

    Audio #2
    ID                                       : 3
    Format                                   : AC-3
    Format/Info                              : Audio Coding 3
    Mode extension                           : CM (complete main)
    Codec ID                                 : A_AC3
    Duration                                 : 43mn 7s
    Bit rate mode                            : Constant
    Bit rate                                 : 384 Kbps
    Channel(s)                               : 6 channels
    Channel positions                        : Front: L C R, Side: L R, LFE
    Sampling rate                            : 48.0 KHz
    Bit depth                                : 16 bits
    Compression mode                         : Lossy
    Stream size                              : 118 MiB (8%)
    Language                                 : English
    Default                                  : No
    Forced                                   : No




    Скриншоты:
    скриншот   скриншот   скриншот   скриншот   скриншот  
    скриншот  

    Раздача ведётся путём добавления новых серий. Добавлена 13 серия (30.08.2015).Просьба перекачать торрент файл.

    pb.wtf



  • Скачать Ганнибал через торрент http://i6.imageban.ru/out/2015/06/06/0e56f00ba7118afede6fc816052edb34.jpg Скачать фильм Ганнибал через торрент бесплантно в хорошем качестве Описание: Уилл Грэм - одаренный профайлер, который вместе с ФБР разыскивает серийного убийцу. Уникальный способ мышления Грэма дает ему ... 9.9 10 18
    Info! Золотая раздача, скачанное не засчитывается.
    Торрент: Зарегистрирован [2015-08-30 01:56] · скачан: 65 раз
    Статус: √ проверено
    Размер: 18.37 GB
    Как cкачать? Как скачать Ганнибал через торрент | qTorrent

    % Раздел Тема Автор DL S | L
    Зарубежные сериалы [ 22.11 GB ] Ганнибал / Hannibal / Сезон: 3 / Серии 1-13 из 13 [2015 WEB-DL 1080p] MVO [BaibaKo] GEKADOL Скачать
    1 | 0
    Зарубежные сериалы [ 7.19 GB ] Ганнибал / Hannibal / Сезон: 3 / Серии 1-13 из 13 [2015 HDTVRip MVO] [AlexFilm] GEKADOL Скачать
    1 | 0
    Зарубежные сериалы [ 363 MB ] Ганнибал / Hannibal / Сезон: 3 / Серии 1 из 13 [2015 HDTVRip] MVO [Sony SciFi] GEKADOL Скачать
    1 | 0
    Зарубежные сериалы [ 8.88 GB ] Ганнибал / Hannibal / Сезон: 3 / Серии 1-13 из 13 [2015 WEB-DLRip] MVO [BaibaKo] GEKADOL Скачать
    1 | 0
    Зарубежные сериалы [ 257 MB ] Ганнибал / Hannibal / Сезон: 3 / Серии 1 из 13 [2015 WEB-DLRip] DVO [Jaskier] GEKADOL Скачать
    1 | 0

    28-11-2019 20:33  

    Отключить всю рекламу на сайте

    14-02-2017 20:58 Ганнибал Скачать торрент  

    Дайте скоростиpb.wtf



    17-02-2017 00:20 Ганнибал Скачать торрент  

    93% из 100%. Не докачал.pb.wtf



      Дорогой пользователь! Огромная просьба, поблагодарите релизера, оцените раздачу и оставьте свои комментарий, если Вы скачали Ганнибал через торрент бесплатно! Внесите свою лепту в развитие PiratBit!
      Комментировать посты могут только пользователи прошедшие не сложную регистрацию
      Показать сообщения:    

      Ганнибал через торрент
      Скачать бесплатно Ганнибал
      Ганнибал скачать торрент
      Ганнибал смотреть онлайн
      Cкачать фильм Ганнибал бесплатно
      Ганнибал скачать торрент в хорошем качестве
      Ганнибал смотреть онлайн бесплатно в хорошем качестве


      Вы не можете начинать темы
      Вы не можете отвечать на сообщения
      Вы не можете редактировать свои сообщения
      Вы не можете удалять свои сообщения
      Вы не можете голосовать в опросах
      Вы не можете прикреплять файлы к сообщениям
      Вы можете скачивать файлы