Ссылка на приватное зеркало нашего сайта всего за 1$. Внимание количество ограничено!!!

2 сезон

iTunes

1 сезон

1

2 сезон

2 сезон

iTunes

1 сезон

RePack

30

Новинка

ВАЖНО

ИГРА 18+

pack

RePack

MK11
pack

Забери бонус

RePack

jed

!!Акция!!

Alien_Rage

RePack

fifa19

RePack

Assassins Creed: Odyssey

RePack

NEED FOR SPEED™ PAYBACK

4 сезон

9 сезон

Бесстыжие 9 сезон

Все сериалы

все сериалы на PB.wtf

RePack

FAR CRY 5
  

Восьмое чувство / Sense8 / Сезон: 1 / Серии 1-12 из 12 (Дэн Гласс / Dan Glass, Энди Вачовски / Andy Wachowski, Лана Вачовски / Lana Wachowski) [2015, США, фантастика, драма, WEBRip 720р, MVO] [NewStudio] pb.wtf

Восьмое чувство через торрент pb.wtf

Размер: 19.67 GB | Добавлен: 5 лет 5 мес. назад | Торрент скачан:342 раза
Скачать  

06-06-2015 02:52 Восьмое чувство Скачать торрент  

Восьмое чувство / Sense8


  • Год выпуска: 2015
  • Страна: США
  • Жанр: фантастика, драма
  • Продолжительность: 01:06:43 (Серия)
  • Перевод: Профессиональный многоголосый закадровый [NewStudio]

  • Режиссер: Дэн Гласс / Dan Glass, Энди Вачовски / Andy Wachowski, Лана Вачовски / Lana Wachowski
  • В ролях:

    Джеми Клейтон (Nomi Marks), Макс Римельт (Wolfgang), Анупам Кхер (Manendra Rasal), Джеронимо Бест (Assistant Director), Ари Брикман (Director), Сара Сон (Soo-jin), Фрима Аджьеман, Амл Амин, Навин Эндрюс, Пэ Ду На, Тина Десай, Максимильенщ Эвальт (Grace)

  • Описание:
    Группа людей из разных точек мира неожиданно оказываются ментально связанными, теперь им придется найти способ, чтобы выжить, потому что за ними начинают охотиться те, кто видит в них угрозу для этого мира...
  • Рейтинг:



  • Качество: WEBRip 720р
  • Формат: :MKV
  • Видео кодек: AVC
  • Аудио кодек: AC3
  • Видео: 1280x720 (16:9), 3277 kbps, 23,976 fps, 0,148 bpp
  • Аудио №1: русский / 5.1 / 48 kHz / 384 kbps / 16 bit |[NewStudio]|
  • Аудио №2: английский / 5.1 / 48 kHz / 640 kbps / 16 bit
  • Релиз от: GEKADOL

    Код:

    Внимание! Раздача ведётся путём добавления новых серий; при каждом добавлении создаётся новый торрент. Чтобы начать докачку новой серии, пользователям необходимо сделать следующее:
    (1) остановить скачивание,
    (2) удалить старый торрент у себя из клиента (старые серии удалять не надо),
    (3) скачать новый торрент и запустить его у себя в клиенте вместо старого, при этом указать клиенту путь в старую папку куда и должно происходить скачивание новых серий.
    Ваш клиент при этом должен произвести хеширование (проверку) старой папки (если не производит сам - помогите ему сделать это), и будет докачивать только те серии которых у вас ещё нет. Старые серии при этом не удаляются, а продолжают раздаваться!
    Eсли вы уже удалили старые серии, то предотвратить повторную закачку старых серий можно, отжав галочку в соответствующих местах при запуске нового торрента. По возможности, желательно не удалять старые серии как можно дольше чтобы релизёр не столько продолжал раздавать старые серии, а смог сконцентрироваться на новых.


    Код:

    General
    Unique ID                                : 225440915479356130384129057656196800686 (0xA99A574A8AD92481CBB55C240867A0AE)
    Complete name                            : F:\Sense8.s01e01.720p.WEBRip.NewStudio.TV.mkv
    Format                                   : Matroska
    Format version                           : Version 4 / Version 2
    File size                                : 2.05 GiB
    Duration                                 : 1h 6mn
    Overall bit rate                         : 4 389 Kbps
    Encoded date                             : UTC 2015-06-06 01:34:05
    Writing application                      : mkvmerge v7.4.0 ('Circles') 64bit
    Writing library                          : libebml v1.3.0 + libmatroska v1.4.1
    DURATION                                 : 01:06:43.360000000
    NUMBER_OF_FRAMES                         : 125105
    NUMBER_OF_BYTES                          : 192161280
    _STATISTICS_WRITING_APP                  : mkvmerge v7.4.0 ('Circles') 64bit
    _STATISTICS_WRITING_DATE_UTC             : 2015-06-06 01:34:05
    _STATISTICS_TAGS                         : BPS DURATION NUMBER_OF_FRAMES NUMBER_OF_BYTES

    Video
    ID                                       : 1
    Format                                   : AVC
    Format/Info                              : Advanced Video Codec
    Format profile                           : High@L4.1
    Format settings, CABAC                   : Yes
    Format settings, ReFrames                : 9 frames
    Codec ID                                 : V_MPEG4/ISO/AVC
    Duration                                 : 1h 6mn
    Bit rate                                 : 3 277 Kbps
    Width                                    : 1 280 pixels
    Height                                   : 720 pixels
    Display aspect ratio                     : 16:9
    Frame rate                               : 23.976 fps
    Color space                              : YUV
    Chroma subsampling                       : 4:2:0
    Bit depth                                : 8 bits
    Scan type                                : Progressive
    Bits/(Pixel*Frame)                       : 0.148
    Stream size                              : 1.53 GiB (75%)
    Writing library                          : x264 core 144 r2525 40bb568
    Encoding settings                        : cabac=1 / ref=9 / deblock=1:-3:-3 / analyse=0x3:0x133 / me=umh / subme=10 / psy=1 / psy_rd=1.00:0.00 / mixed_ref=1 / me_range=48 / chroma_me=1 / trellis=2 / 8x8dct=1 / cqm=0 / deadzone=21,11 / fast_pskip=0 / chroma_qp_offset=-2 / threads=12 / lookahead_threads=2 / sliced_threads=0 / nr=0 / decimate=0 / interlaced=0 / bluray_compat=0 / constrained_intra=0 / bframes=8 / b_pyramid=2 / b_adapt=2 / b_bias=0 / direct=3 / weightb=1 / open_gop=0 / weightp=2 / keyint=250 / keyint_min=24 / scenecut=40 / intra_refresh=0 / rc=crf / mbtree=0 / crf=18.0 / qcomp=0.60 / qpmin=0 / qpmax=69 / qpstep=4 / ip_ratio=1.40 / pb_ratio=1.30 / aq=1:0.65
    Language                                 : English
    Default                                  : Yes
    Forced                                   : No
    DURATION                                 : 01:06:43.833000000
    NUMBER_OF_FRAMES                         : 95996
    NUMBER_OF_BYTES                          : 1683028943
    _STATISTICS_WRITING_APP                  : mkvmerge v7.4.0 ('Circles') 64bit
    _STATISTICS_WRITING_DATE_UTC             : 2015-06-06 01:34:05
    _STATISTICS_TAGS                         : BPS DURATION NUMBER_OF_FRAMES NUMBER_OF_BYTES

    Audio #1
    ID                                       : 2
    Format                                   : AC-3
    Format/Info                              : Audio Coding 3
    Mode extension                           : CM (complete main)
    Codec ID                                 : A_AC3
    Duration                                 : 1h 6mn
    Bit rate mode                            : Constant
    Bit rate                                 : 384 Kbps
    Channel(s)                               : 6 channels
    Channel positions                        : Front: L C R, Side: L R, LFE
    Sampling rate                            : 48.0 KHz
    Bit depth                                : 16 bits
    Compression mode                         : Lossy
    Stream size                              : 183 MiB (9%)
    Title                                    : NewStudio.TV
    Language                                 : Russian
    Default                                  : Yes
    Forced                                   : No

    Audio #2
    ID                                       : 3
    Format                                   : AC-3
    Format/Info                              : Audio Coding 3
    Mode extension                           : CM (complete main)
    Codec ID                                 : A_AC3
    Duration                                 : 1h 6mn
    Bit rate mode                            : Constant
    Bit rate                                 : 640 Kbps
    Channel(s)                               : 6 channels
    Channel positions                        : Front: L C R, Side: L R, LFE
    Sampling rate                            : 48.0 KHz
    Bit depth                                : 16 bits
    Compression mode                         : Lossy
    Stream size                              : 305 MiB (15%)
    Language                                 : English
    Default                                  : No
    Forced                                   : No




    Скриншоты:
    скриншот   скриншот   скриншот   скриншот   скриншот  
    скриншот  

    Раздача ведётся путём добавления новых серий. Добавлена 12 серия (10.06.2015).Просьба перекачать торрент файл.

    pb.wtf



  • Скачать Восьмое чувство через торрент http://i72.fastpic.ru/big/2015/0606/d8/6da38bc305c4d64bac5157f2894ff6d8.jpeg Скачать фильм Восьмое чувство через торрент бесплантно в хорошем качестве Описание: Группа людей из разных точек мира неожиданно оказываются ментально связанными, теперь им придется найти способ, чтобы выжить, ... 7.7 10 6
    Info! Золотая раздача, скачанное не засчитывается.
    Торрент: Зарегистрирован [2015-06-10 10:06] · скачан: 342 раз
    Статус: √ проверено
    Размер: 19.67 GB
    Как cкачать? Как скачать Восьмое чувство через торрент | qTorrent

    % Раздел Тема Автор DL S | L
    Зарубежные сериалы [ 36.37 GB ] Восьмое чувство / Sense8 / Сезон: 1 / Серии: 1-12 из 12 [2015 WEBRip 1080p] MVO [NewStudio] bober100 Скачать
    1 | 0
    Зарубежные сериалы [ 8.76 GB ] Восьмое чувство / Sense8 / Сезон: 1 / Серии 1-12 из 12 [2015 WEBRip MVO] [BaibaKo] GEKADOL Скачать
    1 | 0
    Зарубежные сериалы [ 20.92 GB ] Восьмое чувство / Sense8 / Сезон: 1 / Серии 1-12 из 12 [2015 WEBRip 720р MVO] [BaibaKo] GEKADOL Скачать
    1 | 0
    Зарубежные сериалы [ 8.52 GB ] Восьмое чувство / Sense8 / Сезон: 1 / Серии 1-12 из 12 [2015 WEBRip MVO] [NewStudio] GEKADOL Скачать
    1 | 0


    Последний раз редактировалось: GEKADOL (2015-06-10 10:05), всего редактировалось 2 раз(а)

    28-11-2019 20:33  

    Отключить всю рекламу на сайте

    08-06-2015 12:28 Восьмое чувство Скачать торрент  

    Громкая реклама, Вачовски, а на деле УГ =(pb.wtf



    08-06-2015 14:52 Восьмое чувство Скачать торрент  

    Ten0N писал(а):

    Громкая реклама, Вачовски, а на деле УГ =(

    как понял,значит не стоить смотреть...pb.wtf



    10-06-2015 11:03 Восьмое чувство Скачать торрент  

    ну рейтинг 7.7 надо глянуть. вкусы разныеpb.wtf



    10-06-2015 11:07 Восьмое чувство Скачать торрент  

    dembel55, говно а не сериалpb.wtf



    10-06-2015 12:05 Восьмое чувство Скачать торрент  

    так что стоит смотреть или нет?а то два отзыва не вселяют надежды.pb.wtf



    10-06-2015 16:53 Восьмое чувство Скачать торрент  

    А мне очень понравился. Крайне рекомендую.
    Только не очень понял чем дело кончилось, их ведь найдут...pb.wtf



    21-06-2015 09:32 Восьмое чувство Скачать торрент  

    Если абстрагироваться от всей той педерастии, аморальности и прочих нелицеприятных сцен, что привнесла в сериал Лана (бывший Ларри) Вачовски, отмести и не обращать внимания, то сериал очень даже интересный. Идея просто шикарная, сюжет тоже неплох. Почти все персонажи очень харизматичны, уникальны и вызывают большую симпатию и сопереживание. Я тоже рекомендую к просмотру.pb.wtf



    23-06-2015 17:52 Восьмое чувство Скачать торрент  

    Короче сериал про педиков, лесбиянок и наркоманов - кто хочет смотрите. pb.wtf



    28-06-2015 18:40 Восьмое чувство Скачать торрент  

    Не плох. про педов и лезбов перематывал. Хороший если бы не одно но реклама наркоты и .pb.wtf



    01-08-2015 10:27 Восьмое чувство Скачать торрент  

    Мердок писал(а):

    Если абстрагироваться от всей той педерастии, аморальности и прочих нелицеприятных сцен, что привнесла в сериал Лана (бывший Ларри) Вачовски, отмести и не обращать внимания, то сериал очень даже интересный. Идея просто шикарная, сюжет тоже неплох. Почти все персонажи очень харизматичны, уникальны и вызывают большую симпатию и сопереживание. Я тоже рекомендую к просмотру.

    рекомендую к просмотру! yespb.wtf



      Дорогой пользователь! Огромная просьба, поблагодарите релизера, оцените раздачу и оставьте свои комментарий, если Вы скачали Восьмое чувство через торрент бесплатно! Внесите свою лепту в развитие PiratBit!
      Комментировать посты могут только пользователи прошедшие не сложную регистрацию
      Показать сообщения:    

      Восьмое чувство через торрент
      Скачать бесплатно Восьмое чувство
      Восьмое чувство скачать торрент
      Восьмое чувство смотреть онлайн
      Cкачать фильм Восьмое чувство бесплатно
      Восьмое чувство скачать торрент в хорошем качестве
      Восьмое чувство смотреть онлайн бесплатно в хорошем качестве


      Вы не можете начинать темы
      Вы не можете отвечать на сообщения
      Вы не можете редактировать свои сообщения
      Вы не можете удалять свои сообщения
      Вы не можете голосовать в опросах
      Вы не можете прикреплять файлы к сообщениям
      Вы можете скачивать файлы