2 сезон

iTunes

MVO

1

2 сезон

iTunes

iTunes

1 сезон

RePack

30

Новинка

ВАЖНО

ИГРА 18+

pack

RePack

MK11
pack

Легкие деньги

RePack

jed

RePack

fifa19

RePack

RDR2

RePack

NEED FOR SPEED™ PAYBACK

4 сезон

9 сезон

Бесстыжие 9 сезон

Все сериалы

все сериалы на PB.wtf

RePack

FAR CRY 5

Anonymous, добрый вечер, мы не успеваем собрать деньги на оплату серверов за декабрь и январь, помогите нам пожалуйста в это трудное время. В качестве благодарности мы отключим Вам всю рекламу на сайте (укажите свой ник в строку Ваше имя)!

×
  
Magnet ссылка

В случае убийства набирайте «М» 3D / Dial M for Murder (Альфред Хичкок ) [1954, триллер, криминал, BDRip 1080p] Anamorph OverUnder / Вертикальная анаморфная стереопара pb.wtf

В случае убийства набирайте «М» 3D через торрент pb.wtf

Размер: 7.43 GB | Добавлен: 5 лет 7 мес. назад | Торрент скачан:51 раз
Скачать  

06-06-2015 05:27 В случае убийства набирайте «М» 3D Скачать торрент  

В случае убийства набирайте «М» 3D / Dial M for Murder
Год выпуска: 1954
Страна: США
Жанр: триллер, криминал
Продолжительность: 01:45:24
Перевод: Профессиональный (многоголосый, закадровый)
Режиссер: Альфред Хичкок
В ролях: Рэй Милланд (Tony Wendice), Грэйс Келли (Margot Mary Wendice), Роберт Каммингс (Mark Halliday), Джон Уильямс (Chief Inspector Hubbard), Энтони Доусон (Captain Lesgate (Swann)), Лео Бритт (The Storyteller), Патрик Аллен (Detective Pearson), Джордж Ли (Detective Williams), Джордж Алдерсон (First Detective), Робин Хьюз (Police Sergeant O'Brien), Ричард Бендер (Banquet Member, в титрах не указан), Сандерс Кларк (Detective, в титрах не указан)
Описание:
Тони Вендис, бывший плейбой и звезда большого тенниса, прожигающий деньги своей красавицы-жены Марго, решается на преступление, когда узнает, что может лишиться ее миллионов, так как Марго увлеклась американским писателем детективных романов Марком Холлидэем.
Тони придумывает план идеального убийства, находит надежного исполнителя и организует себе безупречное алиби. Он предусматривает все, кроме необычного поведения Марго и аналитических способностей Марка...
Рейтинг:

MPAA: PG - Рекомендуется присутствие родителей
Качество: BDRip 1080p
Формат: MKV
Формат 3D: Anamorph OverUnder / Вертикальная анаморфная стереопара
Видео кодек: AVC
Аудио кодек: AC3
Видео: AVC, High@L4.1, 1920x1080, 23.976 fps, 9443 Кбит/сек
Аудио №1: русский / AC3 / 2.0 / 48 kHz / 192 kbps / 16 bit
Аудио №2: английский / AC3 / 1 / 48 kHz / 448 kbps / 16 bit

Код:

Общее
Уникальный идентификатор                 : 216634997948042139015212871527193302239 (0xA2FA6209576D63D4A3B512942AE2D4DF)
Полное имя                               : D:\Фильмы\DialMforMurder.3D.1954.BD3DRip.Half.OU.x264.AC3.Rus.Eng.3D.mkv
Формат                                   : Matroska
Версия формата                           : Version 2
Размер файла                             : 7,43 Гбайт
Продолжительность                        : 1 ч. 45 м.
Общий поток                              : 10,1 Мбит/сек
Название фильма                          : rip by StarStranger release 3D
Дата кодирования                         : UTC 2012-10-21 18:59:55
Программа кодирования                    : mkvmerge v3.4.0 ('Rapunzel') сборка от May 15 2010 09:38:20
Библиотека кодирования                   : libebml v0.8.0 + libmatroska v0.9.0

Видео
Идентификатор                            : 1
Формат                                   : AVC
Формат/Информация                        : Advanced Video Codec
Профиль формата                          : High@L4.1
Параметр CABAC формата                   : Да
Параметр ReFrames формата                : 4 кадра
Идентификатор кодека                     : V_MPEG4/ISO/AVC
Продолжительность                        : 1 ч. 45 м.
Битрейт                                  : 9443 Кбит/сек
Ширина                                   : 1920 пикселей
Высота                                   : 1080 пикселей
Соотношение сторон                       : 16:9
Режим частоты кадров                     : Постоянный
Частота кадров                           : 23,976 кадра/сек
Цветовое пространство                    : YUV
Субдискретизация насыщенности            : 4:2:0
Битовая глубина                          : 8 бит
Тип развёртки                            : Прогрессивная
Бит/(Пиксели*Кадры)                      : 0.190
Размер потока                            : 6,81 Гбайт (92%)
Библиотека кодирования                   : x264 core 125 r2200 999b753
Настройки программы                      : cabac=1 / ref=4 / deblock=1:-3:-3 / analyse=0x3:0x133 / me=umh / subme=9 / psy=1 / psy_rd=1.15:0.25 / mixed_ref=1 / me_range=16 / chroma_me=1 / trellis=2 / 8x8dct=1 / cqm=0 / deadzone=6,6 / fast_pskip=0 / chroma_qp_offset=-4 / threads=3 / lookahead_threads=1 / sliced_threads=0 / nr=0 / decimate=0 / interlaced=0 / bluray_compat=0 / constrained_intra=0 / bframes=6 / b_pyramid=2 / b_adapt=2 / b_bias=0 / direct=3 / weightb=1 / open_gop=0 / weightp=2 / keyint=240 / keyint_min=23 / scenecut=40 / intra_refresh=0 / rc_lookahead=60 / rc=2pass / mbtree=1 / bitrate=9443 / ratetol=1.0 / qcomp=0.80 / qpmin=0 / qpmax=69 / qpstep=4 / cplxblur=20.0 / qblur=0.5 / vbv_maxrate=30000 / vbv_bufsize=30000 / nal_hrd=none / ip_ratio=1.10 / aq=1:0.70
Язык                                     : English
Default                                  : Нет
Forced                                   : Нет

Аудио #1
Идентификатор                            : 2
Формат                                   : AC-3
Формат/Информация                        : Audio Coding 3
Расширение режима                        : CM (complete main)
Параметр Endianness формата              : Big
Идентификатор кодека                     : A_AC3
Продолжительность                        : 1 ч. 45 м.
Вид битрейта                             : Постоянный
Битрейт                                  : 192 Кбит/сек
Каналы                                   : 2 канала
Расположение каналов                     : Front: L R
Частота                                  : 48,0 КГц
Битовая глубина                          : 16 бит
Метод сжатия                             : С потерями
Размер потока                            : 145 Мбайт (2%)
Заголовок                                : MVO
Язык                                     : Russian
Default                                  : Да
Forced                                   : Нет

Аудио #2
Идентификатор                            : 3
Формат                                   : AC-3
Формат/Информация                        : Audio Coding 3
Расширение режима                        : CM (complete main)
Параметр Endianness формата              : Big
Идентификатор кодека                     : A_AC3
Продолжительность                        : 1 ч. 45 м.
Вид битрейта                             : Постоянный
Битрейт                                  : 448 Кбит/сек
Каналы                                   : 1 канал
Расположение каналов                     : Front: C
Частота                                  : 48,0 КГц
Битовая глубина                          : 16 бит
Метод сжатия                             : С потерями
Размер потока                            : 338 Мбайт (4%)
Язык                                     : English
Default                                  : Нет
Forced                                   : Нет

pb.wtf



Скачать В случае убийства набирайте «М» 3D через торрент http://s020.radikal.ru/i708/1506/b2/b49a80446d0e.jpg Скачать фильм В случае убийства набирайте «М» 3D через торрент бесплантно в хорошем качестве Описание: Тони Вендис, бывший плейбой и звезда большого тенниса, прожигающий деньги своей красавицы-жены Марго, решается на преступление, ... 10 10 4
Торрент: Зарегистрирован [2015-06-06 05:27] · скачан: 51 раз
Статус: √ проверено
Размер: 7.43 GB
Как cкачать? Как скачать В случае убийства набирайте «М» 3D через торрент | UTorrent



Последний раз редактировалось: SolidSnake (2015-07-11 06:58), всего редактировалось 4 раз(а)

28-11-2019 20:33  

Отключить всю рекламу на сайте

06-06-2015 05:37 В случае убийства набирайте «М» 3D Скачать торрент  

Этот фильм изначально снимался в 3D на Natural Vision 3-D camera, так что 3D тут честное. Это не автоконверт.pb.wtf



06-06-2015 06:34 В случае убийства набирайте «М» 3D Скачать торрент  

rufuss-87 писал(а):

Год выпуска: 1954

rufuss-87 писал(а):

Этот фильм изначально снимался в 3D на Natural Vision 3-D

Вы шутите?? В те года вообще знали что такое 3д!?pb.wtf



06-06-2015 06:39 В случае убийства набирайте «М» 3D Скачать торрент  

Ворон писал(а):

rufuss-87 писал(а):

Год выпуска: 1954

rufuss-87 писал(а):

Этот фильм изначально снимался в 3D на Natural Vision 3-D

Вы шутите?? В те года вообще знали что такое 3д!?

Я тебя наверное удивлю, но знали ещё с 1900 годаpb.wtf



06-06-2015 06:40 В случае убийства набирайте «М» 3D Скачать торрент  

Ворон писал(а):

rufuss-87 писал(а):

Год выпуска: 1954

rufuss-87 писал(а):

Этот фильм изначально снимался в 3D на Natural Vision 3-D

Вы шутите?? В те года вообще знали что такое 3д!?

Оказывается знали ))pb.wtf



    Дорогой пользователь! Огромная просьба, поблагодарите релизера, оцените раздачу и оставьте свои комментарий, если Вы скачали В случае убийства набирайте «М» 3D через торрент бесплатно! Внесите свою лепту в развитие PiratBit!
    Комментировать посты могут только пользователи прошедшие не сложную регистрацию
    Показать сообщения:    

    В случае убийства набирайте «М» 3D через торрент
    Скачать бесплатно В случае убийства набирайте «М» 3D
    В случае убийства набирайте «М» 3D скачать торрент
    В случае убийства набирайте «М» 3D смотреть онлайн
    Cкачать фильм В случае убийства набирайте «М» 3D бесплатно
    В случае убийства набирайте «М» 3D скачать торрент в хорошем качестве
    В случае убийства набирайте «М» 3D смотреть онлайн бесплатно в хорошем качестве


    Вы не можете начинать темы
    Вы не можете отвечать на сообщения
    Вы не можете редактировать свои сообщения
    Вы не можете удалять свои сообщения
    Вы не можете голосовать в опросах
    Вы не можете прикреплять файлы к сообщениям
    Вы можете скачивать файлы