2 сезон

iTunes

MVO

1

2 сезон

iTunes

iTunes

1 сезон

RePack

30

Новинка

ВАЖНО

ИГРА 18+

pack

RePack

MK11
pack

Легкие деньги

RePack

jed

RePack

fifa19

RePack

RDR2

RePack

NEED FOR SPEED™ PAYBACK

4 сезон

9 сезон

Бесстыжие 9 сезон

Все сериалы

все сериалы на PB.wtf

RePack

FAR CRY 5

Anonymous, доброе утро, мы не успеваем собрать деньги на оплату серверов за декабрь и январь, помогите нам пожалуйста в это трудное время. В качестве благодарности мы отключим Вам всю рекламу на сайте (укажите свой ник в строку Ваше имя)!

×
  
Magnet ссылка

Запрещённое музыкальное видео / Uncensored Music Videos vol.3x [2015 г., Adult music clips, House, Dance ,Rap, Rock, Pop..., WEB-DLRip 1080p, Оригинал] pb.wtf

Запрещённое музыкальное видео через торрент pb.wtf

Размер: 2.23 GB | Добавлен: 5 лет 7 мес. назад | Торрент скачан:753 раза
Скачать  

06-06-2015 05:39 Запрещённое музыкальное видео Скачать торрент  

Запрещённое музыкальное видео / Uncensored Music Videos vol.3x
Год выпуска: 2015
Страна: All World
Жанр: Adult music clips, House, Dance ,Rap, Rock, Pop...
Продолжительность: 01:51:13
Перевод: Оригинал

Описание:

Сборник клипов запрещённого видео....vol.3x
01. Angelspit - Toxic Girl [05:14]
02. Morgan Cameron Ross - My Brother Went to Prison [02:54]
03. Drake - Draft Day [04:55]
04. Lily Allen - Hard Out Here [04:22]
05. Walk Down The Hall - King of a Drama Queen [04:13]
06. Chester Watson - Trident [02:10]
07. Incite - WTF [03:42]
08. Sebastien Tellier - Cochon Ville [03:12]
09. Rudebrat - Hattori [01:26]
10. Gangnam Style Parody - Grey [04:36]
11. Coco de Mer X (MaxS's edition) [01:57]
12. Hentai Corporation - Equilibristic Brides [03:33]
13. Crack ov Dawn - From My Shades [03:42]
14. EarAbuse - Pornography [04:32]
15. Freedom [06:15]
16. Justin Symbol ft. Daisy Berkowitz - Control [03:52]
17. Our Saber Tooth Brains - Diana [05:49]
18. Алекс Индиго – Лекарство От Скуки [02:59]
19. Lies - Astroglider [05:12]
20. Elefreak - FE [03:48]
21. The Constellations - Echotree [04:23]
22. LOTM - Evil Power [05:19]
23. Toprek - Kris [01:07]
24. X-Show 2011 [02:13]
25. Meg Myers - Desire [03:57]
26. Sia - Elastic Heart (Before yesterday) [02:09]
27. Museum G-point. Moscow [02:20]
28. Soulburners - Supercool [02:54]
29. Roxy Hard, DJ Rich-Art, SevenEver - Get Wet [02:44]
30. SUICIDE INSIDE - Snake H [05:49]
Качество: WEB-DLRip 1080p
Формат: MP4
Видео: AVC, 1280x720, 1920x1080 (16:9), 25.000 fps, 4 528 Kbps (0.087 bit/pixel)
Аудио#1: AAC LC, 44.1-48.0 KHz, 2 ch, 222 Kbps, VBR
скриншот   скриншот   скриншот   скриншот   скриншот   скриншот  
скриншот   скриншот   скриншот   скриншот   скриншот   скриншот  

Общее
Полное имя : C:\Раздача\Клипы\Uncensored Music Videos vol.3x\03. Drake - Draft Day.mp4
Формат : MPEG-4
Профиль формата : Base Media / Version 2
Идентификатор кодека : mp42
Размер файла : 47,1 Мбайт
Продолжительность : 4 м. 55 с.
Режим общего битрейта : Переменный
Общий поток : 1339 Кбит/сек
Дата кодирования : UTC 2014-04-17 20:13:41
Дата пометки : UTC 2014-04-17 20:13:41

Видео
Идентификатор : 1
Формат : AVC
Формат/Информация : Advanced Video Codec
Профиль формата : High@L3.1
Параметр CABAC формата : Да
Параметр ReFrames формата : 4 кадра
Идентификатор кодека : avc1
Идентификатор кодека/Информация : Advanced Video Coding
Продолжительность : 4 м. 55 с.
Битрейт : 1188 Кбит/сек
Ширина : 1280 пикселей
Высота : 720 пикселей
Соотношение сторон : 16:9
Режим частоты кадров : Постоянный
Частота кадров : 23,976 кадра/сек
Цветовое пространство : YUV
Субдискретизация насыщенности : 4:2:0
Битовая глубина : 8 бит
Тип развёртки : Прогрессивная
Бит/(Пиксели*Кадры) : 0.054
Размер потока : 41,8 Мбайт (89%)
Библиотека кодирования : x264 core 140 r2377 1ca7bb9
Настройки программы :
Дата кодирования : UTC 2014-04-17 20:13:41
Дата пометки : UTC 2014-04-17 20:13:41
Основные цвета : BT.709
Характеристики трансфера : BT.709
Коэффициенты матрицы : BT.709

Аудио
Идентификатор : 2
Формат : AAC
Формат/Информация : Advanced Audio Codec
Профиль формата : LC
Идентификатор кодека : 40
Продолжительность : 4 м. 55 с.
Вид битрейта : Переменный
Битрейт : 147 Кбит/сек
Каналы : 2 канала
Расположение каналов : Front: L R
Частота : 48,0 КГц
Метод сжатия : С потерями
Размер потока : 5,17 Мбайт (11%)
Дата кодирования : UTC 2014-04-17 20:13:41
Дата пометки : UTC 2014-04-17 20:13:41

Общее
Полное имя : C:\Раздача\Клипы\Uncensored Music Videos vol.3x\01. Angelspit - Toxic Girl.mp4
Формат : MPEG-4
Профиль формата : Base Media
Идентификатор кодека : isom
Размер файла : 178 Мбайт
Продолжительность : 5 м. 14 с.
Режим общего битрейта : Переменный
Общий поток : 4752 Кбит/сек
Дата кодирования : UTC 2011-05-07 23:31:06
Дата пометки : UTC 2011-05-08 23:31:11

Видео
Идентификатор : 1
Формат : AVC
Формат/Информация : Advanced Video Codec
Профиль формата : High@L3.1
Параметр CABAC формата : Да
Параметр ReFrames формата : 4 кадра
Идентификатор кодека : avc1
Идентификатор кодека/Информация : Advanced Video Coding
Продолжительность : 5 м. 14 с.
Битрейт : 4528 Кбит/сек
Максимальный битрейт : 10,8 Мбит/сек
Ширина : 1920 пикселей
Высота : 1080 пикселей
Соотношение сторон : 16:9
Режим частоты кадров : Постоянный
Частота кадров : 25,000 кадров/сек
Цветовое пространство : YUV
Субдискретизация насыщенности : 4:2:0
Битовая глубина : 8 бит
Тип развёртки : Прогрессивная
Бит/(Пиксели*Кадры) : 0.087
Размер потока : 170 Мбайт (95%)
Библиотека кодирования : Vimeo Encoder
Дата кодирования : UTC 2011-05-07 23:31:06
Дата пометки : UTC 2011-05-07 23:31:09

Аудио
Идентификатор : 2
Формат : AAC
Формат/Информация : Advanced Audio Codec
Профиль формата : LC
Идентификатор кодека : 40
Продолжительность : 5 м. 14 с.
Вид битрейта : Переменный
Битрейт : 222 Кбит/сек
Максимальный битрейт : 304 Кбит/сек
Каналы : 2 канала
Расположение каналов : Front: L R
Частота : 44,1 КГц
Метод сжатия : С потерями
Размер потока : 8,33 Мбайт (5%)
Дата кодирования : UTC 2011-05-07 23:31:08
Дата пометки : UTC 2011-05-07 23:31:09

pb.wtf



Скачать Запрещённое музыкальное видео через торрент https://pic.kartinco.top/images/11/4i7t7.jpg Скачать фильм Запрещённое музыкальное видео через торрент бесплантно в хорошем качестве Описание: Сборник клипов запрещённого видео....vol.3x Angelspit - Toxic Girl [05:14] Morgan Cameron Ross - My Brother Went to Prison ... 9.1 10 32
Info! Золотая раздача, скачанное не засчитывается.
Торрент: Зарегистрирован [2015-06-06 05:39] · скачан: 753 раз
Статус: √ проверено
Размер: 2.23 GB
Как cкачать? Как скачать Запрещённое музыкальное видео через торрент | UTorrent

28-11-2019 20:33  

Отключить всю рекламу на сайте

    Дорогой пользователь! Огромная просьба, поблагодарите релизера, оцените раздачу и оставьте свои комментарий, если Вы скачали Запрещённое музыкальное видео через торрент бесплатно! Внесите свою лепту в развитие PiratBit!
    Комментировать посты могут только пользователи прошедшие не сложную регистрацию
    Показать сообщения:    

    Запрещённое музыкальное видео через торрент
    Скачать бесплатно Запрещённое музыкальное видео
    Запрещённое музыкальное видео скачать торрент
    Запрещённое музыкальное видео смотреть онлайн
    Cкачать фильм Запрещённое музыкальное видео бесплатно
    Запрещённое музыкальное видео скачать торрент в хорошем качестве
    Запрещённое музыкальное видео смотреть онлайн бесплатно в хорошем качестве


    Вы не можете начинать темы
    Вы не можете отвечать на сообщения
    Вы не можете редактировать свои сообщения
    Вы не можете удалять свои сообщения
    Вы не можете голосовать в опросах
    Вы не можете прикреплять файлы к сообщениям
    Вы можете скачивать файлы