1 сезон

3 сезон

iTunes

1

iTunes

MVO

iTunes

13

1 сезон

RePack

30

Deluxe

pack

Лицензия

ВАЖНО

ИГРА 18+

pack

RePack

MK11

RePack

jed

RePack

fifa19

RePack

RDR2

RePack

NEED FOR SPEED™ PAYBACK

4 сезон

9 сезон

Бесстыжие 9 сезон

Все сериалы

все сериалы на PB.wtf

RePack

FAR CRY 5

Anonymous, добрый день, мы катастрофически не успеваем собрать деньги на оплату серверов, помогите нам пожалуйста 5,10,15р., для нас важна любая помощь . В качестве благодарности мы отключим Вам всю рекламу на сайте (укажите свой ник в строку Ваше имя)!

×
  
Magnet ссылка

Женщина в черном 2: Ангел смерти / The Woman in Black 2: Angel of Death (Том Харпер / Tom Harper) [2014, ужасы, триллер, драма, DVD5] R5 pb.wtf

Женщина в черном 2: Ангел смерти через торрент pb.wtf

Размер: 3.94 GB | Добавлен: 6 лет 1 мес. назад | Торрент скачан:76 раз
Скачать  

06-06-2015 10:02 Женщина в черном 2: Ангел смерти Скачать торрент  


Женщина в черном 2: Ангел смерти / The Woman in Black 2: Angel of Death
«Она не простила. Она не забыла. Она никогда не уходила»
Страна: Великобритания, США, Канада
Студия: Alliance Films, Da Vinci Media Ventures, Exclusive Media Group, Hammer Film Productions Limited, Hammer Films, Talisman Productions, Vertigo Entertainment
Жанр: ужасы, триллер, драма
Год выпуска: 2014
Мировая премьера: 30 декабря 2014
Российская премьера: 15 января 2015
Дата выхода DVD: 2 июня 2015
Продолжительность: 01:34:04
Перевод: Профессиональный (дублированный) [Лицензия]
Cубтитры: нет
Оригинальная аудиодорожка: нет
Режиссер: Том Харпер / Tom Harper
В ролях: Фиби Фокс, Меррин Пирс, Мэри Роско, Хелен МакКрори, Амелия Крауч, Амелия Пиджон, Каспер Олпресс, Пип Пирс, Лейла де Меса, Джуд Райт
Описание: Во время Второй мировой войны группу школьников и их юную учительницу Еву эвакуируют из подвергшегося бомбардировкам Лондона в заброшенное поместье, расположенное в деревенской глуши. Вскоре в деревне начинают происходить странные события. Ева с помощью начальника местного гарнизона Гарри обнаруживает, что приезд детей пробудил темные силы, внушающие больший ужас, чем вражеские бомбардировки. Теперь Ева должна противостоять силам зла, спасти детей и пережить встречу с Женщиной в черном.
Бонусы: нет

Релиз группы:
Качество: DVD5 R5
Формат: DVD-Video
Видео кодек: MPEG2
Аудио кодек: AC3
Видео: PAL 16:9 (720x576(0.523)) MPEG Video, 25,000 кадр/сек, 5418 Кбит/сек
Аудио: Russian (Dolby AC3, 6 ch) 448 Кбит/сек, 48,0 КГц



Title: Рабочий
Size: 3.94 Gb ( 4 135 008 KBytes ) - DVD-5
Enabled regions: 1, 2, 3, 4, 5, 6, 7, 8

VTS_01 :
Play Length: 00:00:19
Video: PAL 16:9 (720x576) VBR, Auto Pan&Scan, Auto Letterboxed
Audio:
Not specified (Dolby AC3, 2 ch)

VTS_02 :
Play Length: 01:34:04
Video: PAL 16:9 (720x576) VBR, Auto Pan&Scan, Auto Letterboxed
Audio:
Not specified (Dolby AC3, 6 ch)

Menu Video:
PAL 16:9 (720x576) VBR
Auto Pan&Scan, Auto Letterboxed
Menu Subtitles:
Not specified
Menu English Language Unit :
Root Menu
Общее
Полное имя : F:\Новинки 2015\Zhenshhina.v.chernom.2.2014.DVD5\VIDEO_TS\VTS_02_2.VOB
Формат : MPEG-PS
Размер файла : 1024 Мбайт
Продолжительность : 23 м.
Режим общего битрейта : Переменный
Общий поток : 5986 Кбит/сек

Видео
Идентификатор : 224 (0xE0)
Формат : MPEG Video
Версия формата : Version 2
Профиль формата : Main@Main
Параметр BVOP формата : Да
Параметр матрицы формата : Выборочная
Параметр GOP формата : M=3, N=15
Структура изображения : Frame
Продолжительность : 23 м.
Вид битрейта : Переменный
Битрейт : 5418 Кбит/сек
Максимальный битрейт : 9000 Кбит/сек
Ширина : 720 пикселей
Высота : 576 пикселей
Соотношение сторон : 16:9
Частота кадров : 25,000 кадров/сек
Стандарт вещания : PAL
Цветовое пространство : YUV
Субдискретизация насыщенности : 4:2:0
Битовая глубина : 8 бит
Тип развёртки : Чересстрочная
Порядок развёртки : Верхнее поле первое
Метод сжатия : С потерями
Бит/(Пиксели*Кадры) : 0.523
Временной код первого кадра : 00:25:27:18
Оригинал временного кода : Group of pictures header
GOP, открыто/закрыто : Закрыто
Размер потока : 927 Мбайт (91%)

Аудио
Идентификатор : 189 (0xBD)-128 (0x80)
Формат : AC-3
Формат/Информация : Audio Coding 3
Расширение режима : CM (complete main)
Параметр Endianness формата : Big
Режим смешивания : DVD-Video
Продолжительность : 23 м.
Вид битрейта : Постоянный
Битрейт : 448 Кбит/сек
Каналы : 6 каналов
Расположение каналов : Front: L C R, Side: L R, LFE
Частота : 48,0 КГц
Метод сжатия : С потерями
Задержка видео : -616 мс.
Размер потока : 76,6 Мбайт (7%)










pb.wtf



Скачать Женщина в черном 2: Ангел смерти через торрент http://i69.fastpic.ru/big/2015/0606/97/76a5b675228d7dcfbe073a60bd795697.jpg Скачать фильм Женщина в черном 2: Ангел смерти через торрент бесплантно в хорошем качестве Описание: Во время Второй мировой войны группу школьников и их юную учительницу Еву эвакуируют из подвергшегося бомбардировкам Лондона в ... 10 10 4
Info! Золотая раздача, скачанное не засчитывается.
Торрент: Зарегистрирован [2015-06-06 10:02] · скачан: 76 раз
Статус: √ проверено
Размер: 3.94 GB
Как cкачать? Как скачать Женщина в черном 2: Ангел смерти через торрент | UTorrent

28-11-2019 20:33  

Отключить всю рекламу на сайте

    Дорогой пользователь! Огромная просьба, поблагодарите релизера, оцените раздачу и оставьте свои комментарий, если Вы скачали Женщина в черном 2: Ангел смерти через торрент бесплатно! Внесите свою лепту в развитие PiratBit!
    Комментировать посты могут только пользователи прошедшие не сложную регистрацию
    Показать сообщения:    

    Женщина в черном 2: Ангел смерти через торрент
    Скачать бесплатно Женщина в черном 2: Ангел смерти
    Женщина в черном 2: Ангел смерти скачать торрент
    Женщина в черном 2: Ангел смерти смотреть онлайн
    Cкачать фильм Женщина в черном 2: Ангел смерти бесплатно
    Женщина в черном 2: Ангел смерти скачать торрент в хорошем качестве
    Женщина в черном 2: Ангел смерти смотреть онлайн бесплатно в хорошем качестве


    Вы не можете начинать темы
    Вы не можете отвечать на сообщения
    Вы не можете редактировать свои сообщения
    Вы не можете удалять свои сообщения
    Вы не можете голосовать в опросах
    Вы не можете прикреплять файлы к сообщениям
    Вы можете скачивать файлы