Всегда рабочее зеркало без VPN и Proxy просто перед .vidak.icu напиши любое слово или цифру, Пример http://kpwo.vidak.icu

MVO

MVO

1 сезон

1

1 сезон

iTunes

1 сезон

13

1 сезон

Deluxe

pack

Рекомендуем

Repack

30

ВАЖНО

RePack

MK11

RePack

jed

RePack

fifa19

RePack

RDR2

RePack

NEED FOR SPEED™ PAYBACK

Кинопоиск HD

6 сезон

 Острые козырьки 6 сезон

Все сериалы

все сериалы на PB.wtf

RePack

FAR CRY 5
  
Magnet ссылка

Одной левой (Армен Ананикян, Виталий Рейнгеверц) [2015 г., комедия, мелодрама, фэнтези, WEB-DLRip] pb.wtf

Одной левой через торрент pb.wtf

Размер: 705 MB | Добавлен: 7 лет 2 мес. назад | Торрент скачан:657 раз
Смотреть онлайн Одной левой | Скачать    Ребята, помогите собрать деньги на оплату серверов!!!

06-06-2015 18:14 Одной левой Скачать торрент  

Одной левой
Год выпуска: 2015
Страна: Россия / Fresh film
Жанр: комедия, мелодрама, фэнтези
Продолжительность: 01:19:09

Режиссер: Армен Ананикян, Виталий Рейнгеверц

IMDB 4.40 (14)


В ролях: Дмитрий Нагиев, Полина Гагарина, Роман Ладнев, Константин Крюков, Михаил Галустян, Ян Цапник, Наталья Костенева, Константин Юшкевич, Армен Ананикян, Илана Исакжанова

Описание: Макс — успешный скульптор. Он убежденный холостяк. У него нет отбоя от девушек и выгодных заказов. Привычный ход жизни нарушает собственная правая рука Макса. Она перестает слушаться его и ведет себя, как рука избалованной девушки. Друзья, клиенты и поклонницы думают, что Макс сошел с ума. Но причина не в этом, в его руку вселилась душа незнакомки. Справится ли герой одной левой?

Качество: WEB-DLRip
Формат: AVI
Видео кодек: XviD
Аудио кодек: MP3
Видео: 640x360 (1.78:1), 25 fps, XviD build 50 ~1106 kbps avg, 0.19 bit/pixel
Аудио: 48 kHz, MPEG Layer 3, 2 ch, ~128.00 kbps avg

Общее
Полное имя : F:\кино\Одной левой.2015.WEB-DLRip.700MB.avi
Формат : AVI
Формат/Информация : Audio Video Interleave
Размер файла : 705 Мбайт
Продолжительность : 1 ч. 19 м.
Общий поток : 1245 Кбит/сек
Программа кодирования : VirtualDubMod 1.5.10.3 | www.virtualdub-fr.org || (build 2550/release)
Библиотека кодирования : VirtualDubMod build 2550/release

Видео
Идентификатор : 0
Формат : MPEG-4 Visual
Профиль формата : Advanced [email protected]
Параметр BVOP формата : 2
Параметр QPel формата : Нет
Параметр GMC формата : Без точки перехода
Параметр матрицы формата : Default (H.263)
Идентификатор кодека : XVID
Идентификатор кодека/Подсказка : XviD
Продолжительность : 1 ч. 19 м.
Битрейт : 1107 Кбит/сек
Ширина : 640 пикселей
Высота : 360 пикселей
Соотношение сторон : 16:9
Частота кадров : 25,000 кадров/сек
Цветовое пространство : YUV
Субдискретизация насыщенности : 4:2:0
Битовая глубина : 8 бит
Тип развёртки : Прогрессивная
Метод сжатия : С потерями
Бит/(Пиксели*Кадры) : 0.192
Размер потока : 627 Мбайт (89%)
Библиотека кодирования : XviD 1.2.1 (UTC 2008-12-04)

Аудио
Идентификатор : 1
Формат : MPEG Audio
Версия формата : Version 1
Профиль формата : Layer 3
Режим : Joint stereo
Идентификатор кодека : 55
Идентификатор кодека/Подсказка : MP3
Продолжительность : 1 ч. 19 м.
Вид битрейта : Постоянный
Битрейт : 128 Кбит/сек
Каналы : 2 канала
Частота : 48,0 КГц
Метод сжатия : С потерями
Размер потока : 72,5 Мбайт (10%)
Выравнивание : Соединение по промежуткам
Продолжительность промежутка : 40 мс. (1,00 видеокадр)
Время предзагрузки промежутка : 504 мс.
Библиотека кодирования : LAME3.99r
Настройки программы : -m j -V 4 -q 2 -lowpass 17 -b 128

pb.wtf



Скачать Одной левой через торрент https://pic1.kartinco.top/images/10/hurbj.jpg Скачать, смотреть онлайн Одной левой бесплантно в хорошем качестве Описание: Макс — успешный скульптор. Он убежденный холостяк. У него нет отбоя от девушек и выгодных заказов. Привычный ход жизни нарушает ... 7.5 10 11
Info! Золотая раздача, скачанное не засчитывается.
Торрент: Зарегистрирован [2015-06-06 18:14] · скачан: 657 раз
Статус: √ проверено
Размер: 705 MB
Как cкачать? Как скачать Одной левой через торрент | UTorrent

% Раздел Тема Автор DL S | L
Наши фильмы 2015 [ 1.48 GB ] Одной левой [2015 WEB-DLRip-AVC] bober100 Скачать
1 | 0
Наши фильмы 2015 [ 1.37 GB ] Одной левой [2015 WEB-DLRip Ворон Скачать
1 | 0
Наши фильмы (HD, WEB-DL 720p, 1080p) [ 3.02 GB ] Одной левой [2015 WEB-DL 1080p] Ворон Скачать
1 | 0

28-11-2019 20:33  

Отключить вcю реклaмy на сайте

    Дорогой пользователь! Огромная просьба, поблагодарите релизера, оцените раздачу и оставьте свои комментарий, если Вы скачали Одной левой через торрент бесплатно!
    Комментировать посты могут только пользователи прошедшие не сложную регистрацию
    Показать сообщения:    

    Одной левой через торрент
    Скачать бесплатно Одной левой
    Одной левой скачать торрент
    Одной левой смотреть онлайн
    Cкачать фильм Одной левой бесплатно
    Одной левой скачать торрент в хорошем качестве
    Одной левой смотреть онлайн бесплатно в хорошем качестве


    Вы не можете начинать темы
    Вы не можете отвечать на сообщения
    Вы не можете редактировать свои сообщения
    Вы не можете удалять свои сообщения
    Вы не можете голосовать в опросах
    Вы не можете прикреплять файлы к сообщениям
    Вы можете скачивать файлы