Ссылка на приватное зеркало нашего сайта всего за 1$. Внимание количество ограничено!!!

2 сезон

iTunes

1 сезон

1

iTunes

iTunes

iTunes

1 сезон

RePack

30

ИГРА 18+

pack

ВАЖНО

!!Акция!!

Alien_RageХит недели

RePack

MK11
pack

Забери бонус

RePack

jed

!!Акция!!

Alien_Rage

RePack

fifa19

RePack

Assassins Creed: Odyssey

RePack

NEED FOR SPEED™ PAYBACK

4 сезон

9 сезон

Бесстыжие 9 сезон

Все сериалы

все сериалы на PB.wtf

RePack

FAR CRY 5
  

Пчёлка Майя / Maya The Bee – Movie (Алекс Стадерманн) [2014 г., мультфильм, фэнтези, приключения, HDRip, Дубляж "Лицензия"] pb.wtf

Пчёлка Майя через торрент pb.wtf

Размер: 1.46 GB | Добавлен: 5 лет 4 мес. назад | Торрент скачан:227 раз
Скачать  

06-06-2015 18:31 Пчёлка Майя Скачать торрент  

Пчёлка Майя / Maya The Bee – Movie
Год выпуска: 2014
Страна: Австралия, Германия / Screen Australia, Buzz Studios, Studio 100 Media
Жанр: мультфильм, фэнтези, приключения
Продолжительность: 01:27:46
Перевод: Дубляж (Лицензия)

Режиссер: Алекс Стадерманн

IMDB 6.00 (527)


В ролях: Коко Джек Гиллис, Нина Шаттон, Коди Смит-МакФи, Ноа Тейлор, Мириам Маргулис, Ричард Роксбург, Джеки Уивер, Джастин Кларк, Энди МакФи, Косма Шива Хаген

Описание: Легендарная пчелка доросла до большого экрана.

Качество: HDRip
Формат: AVI
Видео кодек: XviD
Аудио кодек: AC3
Видео: 720x384 (1.88:1), 23.976 fps, XviD build 50 ~1920 kbps avg, 0.29 bit/pixel
Аудио: 48 kHz, AC3 Dolby Digital, 3/2 (L,C,R,l,r) + LFE ch, ~448 kbps


Общее
Полное имя : F:\кино\Пчёлка Майя.HDRip.2014.avi
Формат : AVI
Формат/Информация : Audio Video Interleave
Размер файла : 1,46 Гбайт
Продолжительность : 1 ч. 27 м.
Общий поток : 2378 Кбит/сек
Программа кодирования : VirtualDubMod 1.5.10.3 | www.virtualdub-fr.org || (build 2550/release)
Библиотека кодирования : VirtualDubMod build 2550/release

Видео
Идентификатор : 0
Формат : MPEG-4 Visual
Профиль формата : Advanced Simple@L5
Параметр BVOP формата : 2
Параметр QPel формата : Нет
Параметр GMC формата : Без точки перехода
Параметр матрицы формата : Default (H.263)
Идентификатор кодека : XVID
Идентификатор кодека/Подсказка : XviD
Продолжительность : 1 ч. 27 м.
Битрейт : 1921 Кбит/сек
Ширина : 720 пикселей
Высота : 384 пикселя
Соотношение сторон : 1,85:1
Частота кадров : 23,976 кадра/сек
Цветовое пространство : YUV
Субдискретизация насыщенности : 4:2:0
Битовая глубина : 8 бит
Тип развёртки : Прогрессивная
Метод сжатия : С потерями
Бит/(Пиксели*Кадры) : 0.290
Размер потока : 1,18 Гбайт (81%)
Библиотека кодирования : XviD 1.2.1 (UTC 2008-12-04)

Аудио
Идентификатор : 1
Формат : AC-3
Формат/Информация : Audio Coding 3
Расширение режима : CM (complete main)
Параметр Endianness формата : Big
Идентификатор кодека : 2000
Продолжительность : 1 ч. 27 м.
Вид битрейта : Постоянный
Битрейт : 448 Кбит/сек
Каналы : 6 каналов
Расположение каналов : Front: L C R, Side: L R, LFE
Частота : 48,0 КГц
Метод сжатия : С потерями
Размер потока : 281 Мбайт (19%)
Выравнивание : Разделение по промежуткам
Продолжительность промежутка : 42 мс. (1,00 видеокадр)
Время предзагрузки промежутка : 500 мс.

pb.wtf



Скачать Пчёлка Майя через торрент http://pic1.kartinco.top/images/10/i8kza.jpg Скачать фильм Пчёлка Майя через торрент бесплантно в хорошем качестве Описание: Легендарная пчелка доросла до большого ... 10 10 9
Торрент: Зарегистрирован [2015-06-06 18:31] · скачан: 227 раз
Статус: √ проверено
Размер: 1.46 GB
Как cкачать? Как скачать Пчёлка Майя через торрент | qTorrent

% Раздел Тема Автор DL S | L
Зарубежные Мультфильмы (BDRip 1080p, 720p, Blu-ray, BD-Remux) [ 5.76 GB ] Пчёлка Майя / Maya The Bee – Movie [2014 Австралия Германия мультфильм BDRip 1080p] DUB _denis_100 Скачать
1 | 0
Иностранные мультфильмы [ 1.37 GB ] Пчёлка Майя / Maya the Bee Movie [2014 мультфильм HDRip / ] Ворон Скачать
1 | 0
Зарубежные Мультфильмы (BDRip 1080p, 720p, Blu-ray, BD-Remux) [ 19.67 GB ] Пчёлка Майя / Maya the Bee Movie [2014 мультфильм BDRemux] DUB / Ворон Скачать
1 | 0

28-11-2019 20:33  

Отключить всю рекламу на сайте

    Дорогой пользователь! Огромная просьба, поблагодарите релизера, оцените раздачу и оставьте свои комментарий, если Вы скачали Пчёлка Майя через торрент бесплатно! Внесите свою лепту в развитие PiratBit!
    Комментировать посты могут только пользователи прошедшие не сложную регистрацию
    Показать сообщения:    

    Пчёлка Майя через торрент
    Скачать бесплатно Пчёлка Майя
    Пчёлка Майя скачать торрент
    Пчёлка Майя смотреть онлайн
    Cкачать фильм Пчёлка Майя бесплатно
    Пчёлка Майя скачать торрент в хорошем качестве
    Пчёлка Майя смотреть онлайн бесплатно в хорошем качестве


    Вы не можете начинать темы
    Вы не можете отвечать на сообщения
    Вы не можете редактировать свои сообщения
    Вы не можете удалять свои сообщения
    Вы не можете голосовать в опросах
    Вы не можете прикреплять файлы к сообщениям
    Вы можете скачивать файлы