Ссылка на приватное зеркало нашего сайта всего за 1$. Внимание количество ограничено!!!

2 сезон

iTunes

1 сезон

1

iTunes

iTunes

iTunes

1 сезон

RePack

30

ИГРА 18+

pack

ВАЖНО

!!Акция!!

Alien_RageХит недели

RePack

MK11
pack

Забери бонус

RePack

jed

!!Акция!!

Alien_Rage

RePack

fifa19

RePack

Assassins Creed: Odyssey

RePack

NEED FOR SPEED™ PAYBACK

4 сезон

9 сезон

Бесстыжие 9 сезон

Все сериалы

все сериалы на PB.wtf

RePack

FAR CRY 5
  

Глубоко во тьме / Deep in the Darkness (Колин Тейс ) [2014, ужасы, триллер, HDRip, Любительский (двухголосый)[2D] pb.wtf

Глубоко во тьме через торрент pb.wtf

Качают: 1 [ 0 KB/s ]
Размер: 1.37 GB | Добавлен: 5 лет 4 мес. назад | Торрент скачан:198 раз
Скачать  

07-06-2015 06:04 Глубоко во тьме Скачать торрент  


Глубоко во тьме / Deep in the Darkness
«A quiet town. A deadly secret»

ИНФОРМАЦИЯ:
Год выпуска: 2014
Страна: США
Жанр: ужасы, триллер
Продолжительность: 01:41:07
Перевод: Любительский (двухголосый)[2D]
Режиссер: Колин Тейс

В Ролях:


Дин Стокуэлл (Phil Deighton), Шон Патрик Томас (Dr. Michael Cayle), Бланш Бейкер (Zellis), Кристен Буш (Cristine Cayle), Дина Катальди (Joanna Harper), Энтони Дель Негро (Tyler Deighton), Cara Loften (Lauren Hunter), Кристина Костелло (Isolate), Адзуми Тсутсуи (Isolate), Стивен А. Миллер (Sam Harper), Jacqui Denski (Isolate), Афина Грант (Jessica Cayle)

Описание:
Доктор Майкл Кейл получает приглашение открыть практику в небольшом городке Эшборо. Устав от суеты большого города, он с женой и дочерью, приезжает в этот милый и уютный городишко с, казалось бы, приветливыми и дружелюбными жителями, но вскоре его семье предстоит узнать, что за скелеты в шкафу скрывают жители Эшборо, какие темные тайны таятся за личинами добрых христиан.

  • Мировая премьера:29 апреля 2014

    ТЕХ.ДАННЫЕ:
    Качество: HDRip
    Формат: AVI
    Видео кодек: XviD
    Аудио кодек: AC3
    Видео: XviD, 720x304 (2.35:1), 1465 kbps, 23,976 fps, 0,279 bpp
    Аудио: AC3 / 5.1 / 48 kHz / 384 kbps / 16 bit



    Код:

    General
    Complete name                            : D:\Торенты\Deep.in.the.Darkness.L2.HDRip.1400MB.avi
    Format                                   : AVI
    Format/Info                              : Audio Video Interleave
    File size                                : 1.37 GiB
    Duration                                 : 1h 41mn
    Overall bit rate                         : 1 935 Kbps
    Writing application                      : VirtualDubMod 1.5.10.2 (build 2540/release)
    Writing library                          : VirtualDubMod build 2540/release

    Video
    ID                                       : 0
    Format                                   : MPEG-4 Visual
    Format profile                           : Advanced Simple@L5
    Format settings, BVOP                    : 2
    Format settings, QPel                    : No
    Format settings, GMC                     : No warppoints
    Format settings, Matrix                  : Default (MPEG)
    Codec ID                                 : XVID
    Codec ID/Hint                            : XviD
    Duration                                 : 1h 41mn
    Bit rate                                 : 1 466 Kbps
    Width                                    : 720 pixels
    Height                                   : 304 pixels
    Display aspect ratio                     : 2.35:1
    Frame rate                               : 23.976 fps
    Color space                              : YUV
    Chroma subsampling                       : 4:2:0
    Bit depth                                : 8 bits
    Scan type                                : Progressive
    Compression mode                         : Lossy
    Bits/(Pixel*Frame)                       : 0.279
    Stream size                              : 1.04 GiB (76%)
    Writing library                          : XviD 1.2.1 (UTC 2008-12-04)

    Audio
    ID                                       : 1
    Format                                   : AC-3
    Format/Info                              : Audio Coding 3
    Mode extension                           : CM (complete main)
    Codec ID                                 : 2000
    Duration                                 : 1h 41mn
    Bit rate mode                            : Constant
    Bit rate                                 : 384 Kbps
    Channel(s)                               : 6 channels
    Channel positions                        : Front: L C R, Side: L R, LFE
    Sampling rate                            : 48.0 KHz
    Bit depth                                : 16 bits
    Compression mode                         : Lossy
    Stream size                              : 278 MiB (20%)
    Alignment                                : Split accross interleaves

    Скриншоты:


    © Оформление by Ворон
    pb.wtf



  • Скачать Глубоко во тьме через торрент http://pic.kartinco.top/images/6/ordi9.jpg Скачать фильм Глубоко во тьме через торрент бесплантно в хорошем качестве Описание: Доктор Майкл Кейл получает приглашение открыть практику в небольшом городке Эшборо. Устав от суеты большого города, он с женой и ... 9.2 10 12
    Info! Золотая раздача, скачанное не засчитывается.
    Торрент: Зарегистрирован [2015-06-07 06:04] · скачан: 198 раз
    Статус: T временная
    Размер: 1.37 GB
    Как cкачать? Как скачать Глубоко во тьме через торрент | qTorrent

    % Раздел Тема Автор DL S | L
    T Фильмы [HD 720p, 1080p] (Звук Cam, VO, DVO) [ 4.63 GB ] Глубоко во тьме / Deep in the Darkness [2014 BDRip 720p Любительский [2D] Ворон Скачать
    1 | 0

    28-11-2019 20:33  

    Отключить всю рекламу на сайте

      Дорогой пользователь! Огромная просьба, поблагодарите релизера, оцените раздачу и оставьте свои комментарий, если Вы скачали Глубоко во тьме через торрент бесплатно! Внесите свою лепту в развитие PiratBit!
      Комментировать посты могут только пользователи прошедшие не сложную регистрацию
      Показать сообщения:    

      Глубоко во тьме через торрент
      Скачать бесплатно Глубоко во тьме
      Глубоко во тьме скачать торрент
      Глубоко во тьме смотреть онлайн
      Cкачать фильм Глубоко во тьме бесплатно
      Глубоко во тьме скачать торрент в хорошем качестве
      Глубоко во тьме смотреть онлайн бесплатно в хорошем качестве


      Вы не можете начинать темы
      Вы не можете отвечать на сообщения
      Вы не можете редактировать свои сообщения
      Вы не можете удалять свои сообщения
      Вы не можете голосовать в опросах
      Вы не можете прикреплять файлы к сообщениям
      Вы можете скачивать файлы