Ссылка на приватное зеркало нашего сайта всего за 1$. Внимание количество ограничено!!!

2 сезон

iTunes

1 сезон

1

iTunes

iTunes

iTunes

1 сезон

RePack

30

ИГРА 18+

pack

ВАЖНО

!!Акция!!

Alien_RageХит недели

RePack

MK11
pack

Забери бонус

RePack

jed

!!Акция!!

Alien_Rage

RePack

fifa19

RePack

Assassins Creed: Odyssey

RePack

NEED FOR SPEED™ PAYBACK

4 сезон

9 сезон

Бесстыжие 9 сезон

Все сериалы

все сериалы на PB.wtf

RePack

FAR CRY 5
  

Газели / Les gazeles (Мона Ашаш ) [2014, комедия, BDRip 720p, Профессиональный (многоголосый) pb.wtf

Газели через торрент pb.wtf

Размер: 4.46 GB | Добавлен: 5 лет 4 мес. назад | Торрент скачан:71 раз
Скачать  

07-06-2015 06:11 Газели Скачать торрент  


Газели / Les gazelles


ИНФОРМАЦИЯ:
Год выпуска: 2014
Страна: Франция
Жанр: комедия
Продолжительность: 01:39:16
Перевод: Профессиональный (многоголосый)
Режиссер: Мона Ашаш

В Ролях:


Камиль Шаму (Marie), Одри Флеро (Sandra), Жозефин де Мо (Judith), Найдра Айади (Myriam), Анн Броше (Gwen), Оливия Коте (Véro), Франк Гастамбид (Eric), Самюэль Беншетри (Martin), Камилль Коттин (Emilie), Рэйчел Ардити (Virginie), Грегуар Людиг (Marco), Давид Марсе (Olivier)

Описание:
Перед лицом ипотеки рушились и не такие союзы - Мари и Эрик вместе давным давно и жили бы душа в душу, но как только появляется перспектива обзавестись первой квартирой в кредит, Мари теряет покой и бежит от семейной рутины, куда глаза глядят. Она оставляет Эрика, и вместе с компанией независимых и прекрасных подруг погружается в пучину парижских вечеринок.
Воодушевленная новыми неожиданными знакомствами, Мари научится по-новому воспринимать своё одиночество и быть сильнее.
Бурлеск ночной жизни и меланхоличный юмор в духе Вуди Аллена - в этой комедии Мари предстоит познать настоящую дружбу и, наконец, полюбить себя.

  • Мировая премьера:17 января 2014

    ТЕХ.ДАННЫЕ:
    Качество: BDRip 720p
    Формат: MKV
    Видео кодек: AVC
    Аудио кодек: DTS, MP3
    Видео: AVC, 1280x536 (2.40:1), 4791 kbps, 24 fps, 0,291 bpp
    Аудио №1: MP3 / 2.0 / 48 kHz / 128 kbps /
    Аудио №2: французский / DTS / 5.1 / 48 kHz / 1510 kbps / 24 bit
    Навигация по главам: есть



    Код:

    General
    Unique ID                                : 196719495306838757267656297953318362295 (0x93FECBF24729560B8711A6EFE0C75CB7)
    Complete name                            : D:\Торенты\Ga3eLi.2014.P.BDRip.720p.mkv
    Format                                   : Matroska
    Format version                           : Version 2
    File size                                : 4.46 GiB
    Duration                                 : 1h 39mn
    Overall bit rate                         : 6 431 Kbps
    Encoded date                             : UTC 2015-06-06 20:59:49
    Writing application                      : mkvmerge v7.8.0 ('River Man') 64bit built on Mar 27 2015 16:31:37
    Writing library                          : libebml v1.3.1 + libmatroska v1.4.2

    Video
    ID                                       : 1
    Format                                   : AVC
    Format/Info                              : Advanced Video Codec
    Format profile                           : High@L4.1
    Format settings, CABAC                   : Yes
    Format settings, ReFrames                : 5 frames
    Codec ID                                 : V_MPEG4/ISO/AVC
    Duration                                 : 1h 39mn
    Bit rate                                 : 4 791 Kbps
    Width                                    : 1 280 pixels
    Height                                   : 536 pixels
    Display aspect ratio                     : 2.40:1
    Frame rate                               : 24.000 fps
    Color space                              : YUV
    Chroma subsampling                       : 4:2:0
    Bit depth                                : 8 bits
    Scan type                                : Progressive
    Bits/(Pixel*Frame)                       : 0.291
    Stream size                              : 3.23 GiB (73%)
    Title                                    : ZEST - zest les gazelles 2014 720 - 720p
    Writing library                          : x264 core 142 r2453 ea0ca51
    Encoding settings                        : cabac=1 / ref=5 / deblock=1:0:0 / analyse=0x3:0x133 / me=umh / subme=7 / psy=1 / psy_rd=1.00:0.00 / mixed_ref=1 / me_range=16 / chroma_me=1 / trellis=1 / 8x8dct=1 / cqm=0 / deadzone=21,11 / fast_pskip=0 / chroma_qp_offset=-2 / threads=6 / lookahead_threads=1 / sliced_threads=0 / nr=0 / decimate=1 / interlaced=0 / bluray_compat=0 / constrained_intra=0 / bframes=3 / b_pyramid=2 / b_adapt=1 / b_bias=0 / direct=1 / weightb=1 / open_gop=0 / weightp=2 / keyint=240 / keyint_min=24 / scenecut=40 / intra_refresh=0 / rc_lookahead=40 / rc=2pass / mbtree=1 / bitrate=4791 / ratetol=1.0 / qcomp=0.60 / qpmin=0 / qpmax=69 / qpstep=4 / cplxblur=20.0 / qblur=0.5 / ip_ratio=1.40 / aq=1:1.00
    Language                                 : English
    Default                                  : Yes
    Forced                                   : No

    Audio #1
    ID                                       : 2
    Format                                   : MPEG Audio
    Format version                           : Version 1
    Format profile                           : Layer 3
    Mode                                     : Joint stereo
    Mode extension                           : MS Stereo
    Codec ID                                 : A_MPEG/L3
    Codec ID/Hint                            : MP3
    Duration                                 : 1h 39mn
    Bit rate mode                            : Constant
    Bit rate                                 : 128 Kbps
    Channel(s)                               : 2 channels
    Sampling rate                            : 48.0 KHz
    Compression mode                         : Lossy
    Stream size                              : 90.9 MiB (2%)
    Default                                  : Yes
    Forced                                   : Yes

    Audio #2
    ID                                       : 3
    Format                                   : DTS
    Format/Info                              : Digital Theater Systems
    Codec ID                                 : A_DTS
    Duration                                 : 1h 39mn
    Bit rate mode                            : Constant
    Bit rate                                 : 1 510 Kbps
    Channel(s)                               : 6 channels
    Channel positions                        : Front: L C R, Side: L R, LFE
    Sampling rate                            : 48.0 KHz
    Bit depth                                : 24 bits
    Compression mode                         : Lossy
    Stream size                              : 1.05 GiB (23%)
    Title                                    : FR-DTS 1509Kbps
    Language                                 : French
    Default                                  : No
    Forced                                   : No

    Menu
    00:00:00.000                             : en:00:00:00.000
    00:12:56.708                             : en:00:12:56.708
    00:24:51.792                             : en:00:24:51.792
    00:33:16.292                             : en:00:33:16.292
    00:42:48.792                             : en:00:42:48.792
    00:52:56.500                             : en:00:52:56.500
    01:04:31.958                             : en:01:04:31.958
    01:14:44.208                             : en:01:14:44.208
    01:24:42.417                             : en:01:24:42.417
    01:35:11.042                             : en:01:35:11.042

    Скриншоты:


    © Оформление by Ворон
    pb.wtf



  • Скачать Газели через торрент http://pic.kartinco.top/images/6/ordi9.jpg Скачать фильм Газели через торрент бесплантно в хорошем качестве Описание: Перед лицом ипотеки рушились и не такие союзы - Мари и Эрик вместе давным давно и жили бы душа в душу, но как только появляется ... 10 10 2
    Торрент: Зарегистрирован [2015-06-07 06:11] · скачан: 71 раз
    Статус: T временная
    Размер: 4.46 GB
    Как cкачать? Как скачать Газели через торрент | qTorrent

    % Раздел Тема Автор DL S | L
    T Фильмы 2014 [DVDrip, WEB-DLRip, HDrip] [ 1.36 GB ] Газели / Les gazeles [2014 HDRip Ворон Скачать
    1 | 0

    28-11-2019 20:33  

    Отключить всю рекламу на сайте

      Дорогой пользователь! Огромная просьба, поблагодарите релизера, оцените раздачу и оставьте свои комментарий, если Вы скачали Газели через торрент бесплатно! Внесите свою лепту в развитие PiratBit!
      Комментировать посты могут только пользователи прошедшие не сложную регистрацию
      Показать сообщения:    

      Газели через торрент
      Скачать бесплатно Газели
      Газели скачать торрент
      Газели смотреть онлайн
      Cкачать фильм Газели бесплатно
      Газели скачать торрент в хорошем качестве
      Газели смотреть онлайн бесплатно в хорошем качестве


      Вы не можете начинать темы
      Вы не можете отвечать на сообщения
      Вы не можете редактировать свои сообщения
      Вы не можете удалять свои сообщения
      Вы не можете голосовать в опросах
      Вы не можете прикреплять файлы к сообщениям
      Вы можете скачивать файлы