MEGA NEWS Получи личный уникальный адрес сайта и защити себя от блокировок. Внимание количество ограничено!!!

iTunes

1+1

iTunes

мы

iTunes

1

iTunes

Чернобыль

iTunes

Ральф против интернета

Лицензия

ПШазам

Лицензия

Игра престолов

Лицензия

30
pack

ВАЖНО

!!Акция!!

Alien_RageХит недели

RePack

Resident Evil 21

ИГРА 18+

pack

RePack

Metro:Exodus

!!Акция!!

Alien_Rage

RePack

fifa19

RePack

Assassins Creed: Odyssey

RePack

NEED FOR SPEED™ PAYBACK

3 сезон

9 сезон

Бесстыжие 9 сезон

Все сериалы

все сериалы на PB.wtf

RePack

FAR CRY 5
Ребята, катастрофически не хватает 1900р. для оплаты серверов за АВГУСТ (всвязи с блокировками трафик упал в 3 раза), 1-2р., выручайте.
  

Дева, телец и козерог / La vergine, il toro e il capricorno (Лучано Мартино / Luciano Martino) [1977, Италия, комедия, DVDRip,Любительский (одноголосый) pb.wtf

Дева, телец и козерог через торрент pb.wtf

Размер: 1.49 GB | Добавлен: 4 года 4 мес. назад | Торрент скачан:86 раз
Скачать  

07-06-2015 07:33 Дева, телец и козерог Скачать торрент  

Дева, телец и козерог / La vergine, il toro e il capricorno

Год выпуска: 1977
Страна: Италия
Жанр: комедия

Продолжительность: 01:31:31
Перевод: Любительский (одноголосый)
Субтитры: Русские отключаемые
Режиссер: Лучано Мартино / Luciano Martino
В ролях: Эдвиж Фенек (Gioia Ferretti), Альберто Лионелло (Gianni Ferretti), Альдо Маччоне (Felice Spezzaferri), Ольга Бизера (Enrica), Альваро Витали (Alvaro), Erna Schurer (Tourist with Patrizio), Микеле Гаммино (Raffaele), Марио Каротенуто (Pietro Guzzini), Джакомо Риццо (Peppino Ruotolo), Фьямметта Баралла (Aida, the Maid), Джанфранко Барра (Alberto Scapicolli), Ларс Блох (American Professor)
Описание:
Джойя Феретти, молодая замужняя дама, узнает о постоянных изменах своего супруга. Решив отплатить той же монетой и наставить мужу рога с первым приглянувшимся ей мужчиной, она отправляется в одиночку отдыхать на остров Искья...
Рейтинг
kinopoisk.ru: 5.833 (21)
imdb.com: 5.30 (146)
Качество: DVDRip
Формат: AVI
Видео кодек: XviD
Аудио кодек:AC3
Видео: XviD, 704x368 (1.913), 1927 kbps, 25 fps, 0,298 bpp
Аудио №1: AC3 / 2.0 / 48 kHz / 192 kbps / 16 bit Русский
Аудио №2: AC3 / 2.0 / 48 kHz / 192 kbps / 16 bit оригинальный

General
Complete name : D:\torrent\La vergine, il toro e il capricorno\La vergine, il toro e il capricorno.avi
Format : AVI
Format/Info : Audio Video Interleave
File size : 1.49 GiB
Duration : 1h 31mn
Overall bit rate : 2 326 Kbps
Writing application : VirtualDubMod 1.5.10.2 (build 2540/release)
Writing library : VirtualDubMod build 2540/release

Video
ID : 0
Format : MPEG-4 Visual
Format profile : Advanced Simple@L5
Format settings, BVOP : 1
Format settings, QPel : No
Format settings, GMC : No warppoints
Format settings, Matrix : Default (MPEG)
Codec ID : XVID
Codec ID/Hint : XviD
Duration : 1h 31mn
Bit rate : 1 928 Kbps
Width : 704 pixels
Height : 368 pixels
Display aspect ratio : 1.913
Frame rate : 25.000 fps
Color space : YUV
Chroma subsampling : 4:2:0
Bit depth : 8 bits
Scan type : Progressive
Compression mode : Lossy
Bits/(Pixel*Frame) : 0.298
Stream size : 1.23 GiB (83%)
Writing library : XviD 1.2.0.dev47 (UTC 2006-11-01)

Audio #1
ID : 1
Format : AC-3
Format/Info : Audio Coding 3
Mode extension : CM (complete main)
Codec ID : 2000
Duration : 1h 31mn
Bit rate mode : Constant
Bit rate : 192 Kbps
Channel(s) : 2 channels
Channel positions : Front: L R
Sampling rate : 48.0 KHz
Bit depth : 16 bits
Compression mode : Lossy
Stream size : 126 MiB (8%)
Alignment : Split accross interleaves
Interleave, duration : 40 ms (1.00 video frame)
Interleave, preload duration : 500 ms

Audio #2
ID : 2
Format : AC-3
Format/Info : Audio Coding 3
Mode extension : CM (complete main)
Codec ID : 2000
Duration : 1h 31mn
Bit rate mode : Constant
Bit rate : 192 Kbps
Channel(s) : 2 channels
Channel positions : Front: L R
Sampling rate : 48.0 KHz
Bit depth : 16 bits
Compression mode : Lossy
Stream size : 126 MiB (8%)
Alignment : Split accross interleaves
Interleave, duration : 40 ms (1.00 video frame)
Interleave, preload duration : 500 ms


pb.wtf



Скачать Дева, телец и козерог через торрент http://pic.kartinco.top/images/11/rh5gi.jpg Скачать фильм Дева, телец и козерог через торрент бесплантно в хорошем качестве Описание: Джойя Феретти, молодая замужняя дама, узнает о постоянных изменах своего супруга. Решив отплатить той же монетой и наставить мужу ... 9 10 5
Info! Золотая раздача, скачанное не засчитывается.
Торрент: Зарегистрирован [2015-06-07 07:33] · скачан: 86 раз
Статус: √ проверено
Размер: 1.49 GB
Как cкачать? Как скачать Дева, телец и козерог через торрент | qTorrent


>> Регистрируемся здесь <<






Отзывы и комментарии о схеме читаем и пишем здесь: ---> Отзывы и комментарии о схеме

Новые благодарочки в телеграм довольных пользователей:
скриншот   скриншот   скриншот   скриншот   скриншот
    Дорогой пользователь! Огромная просьба, поблагодарите релизера, оцените раздачу и оставьте свои комментарий, если Вы скачали Дева, телец и козерог через торрент бесплатно! Внесите свою лепту в развитие PiratBit!
    Комментировать посты могут только пользователи прошедшие не сложную регистрацию
    Показать сообщения:    

    Дева, телец и козерог через торрент
    Скачать бесплатно Дева, телец и козерог
    Дева, телец и козерог скачать торрент
    Дева, телец и козерог смотреть онлайн
    Cкачать фильм Дева, телец и козерог бесплатно
    Дева, телец и козерог скачать торрент в хорошем качестве
    Дева, телец и козерог смотреть онлайн бесплатно в хорошем качестве


    Вы не можете начинать темы
    Вы не можете отвечать на сообщения
    Вы не можете редактировать свои сообщения
    Вы не можете удалять свои сообщения
    Вы не можете голосовать в опросах
    Вы не можете прикреплять файлы к сообщениям
    Вы можете скачивать файлы