новый адрес
Ссылка на приватное зеркало всего за 1$. Внимание количество ограничено!!!

iTunes

1+1

iTunes

мы

iTunes

1

iTunes

Чернобыль

iTunes

Ральф против интернета

Лицензия

ПШазам

Лицензия

Оно 2

Лицензия

30
pack

Вам бонус

ВАЖНО

!!Акция!!

Alien_RageХит недели

RePack

Resident Evil 21

ИГРА 18+

pack

RePack

jed

!!Акция!!

Alien_Rage

RePack

fifa19

RePack

Assassins Creed: Odyssey

RePack

NEED FOR SPEED™ PAYBACK

3 сезон

9 сезон

Бесстыжие 9 сезон

Все сериалы

все сериалы на PB.wtf

RePack

FAR CRY 5
Ребята, катастрофически не хватает 1900р. для оплаты серверов за Октябрь (всвязи с блокировками трафик упал в 3 раза), 1-2р., выручайте.
  

Дикие сердцем / Wild at Heart (Дэвид Линч / David Lynch) [1990 г., триллер, комедия, мелодрама, драма, приключения, криминал, музыка, HDRip] MVO pb.wtf

Дикие сердцем через торрент pb.wtf

Размер: 1.45 GB | Добавлен: 4 года 5 мес. назад | Торрент скачан:2 раза
Скачать  

07-06-2015 10:14 Дикие сердцем Скачать торрент  

Дикие сердцем / Wild at Heart
Год выпуска: 1990
Страна: США
Жанр: триллер, комедия, мелодрама, драма, приключения, музыка
Продолжительность: 02:05:01
Перевод: Профессиональный (многоголосый, закадровый)
Режиссер: Дэвид Линч
В ролях: Николас Кейдж (Sailor Ripley), Лора Дерн (Lula Fortune), Уиллем Дефо (Bobby Peru), Дж.Э. Фримен (Marcelles Santos), Криспин Гловер (Dell), Дайан Лэдд (Marietta Fortune), Кэлвин Локхарт (Reggie), Изабелла Росселлини (Perdita Durango), Гарри Дин Стэнтон (Johnnie Farragut), Грейс Забриски (Juana Durango), Шерилин Фенн (Girl in Accident), Марвин Каплан (Uncle Pooch)
Описание:
Сейлор и Лула спасаются от безжалостной команды наемных убийц, нанятых безумной матерью Лулы Мариэттой. В погоню за беглецами вначале пускается дружок Мариэтты, частный детектив Джонни, а когда Джонни возвращается ни с чем, Мариэтта призывает на помощь своего бывшего любовника, гангстера Сантоса...
Рейтинг:

MPAA: R - Лицам до 17 лет обязательно присутствие взрослого
Качество: HDRip - рип с BDRip 1080p
Формат: AVI
Видео кодек: XviD
Аудио кодек: AC3
Видео: XviD, 720x304 (2.35:1), 1461 kbps, 24 fps, 0,278 bpp
Аудио: AC3 / 2.0 / 48 kHz / 192 kbps / 16 bit

Код:

Общее
Полное имя                               : D:\Фильмы\Dikie_serdcem_HDRip_.avi
Формат                                   : AVI
Формат/Информация                        : Audio Video Interleave
Размер файла                             : 1,45 Гбайт
Продолжительность                        : 2 ч. 5 м.
Общий поток                              : 1663 Кбит/сек
Программа кодирования                    : VirtualDubMod 1.5.10.2 (build 2540/release)
Библиотека кодирования                   : VirtualDubMod build 2540/release

Видео
Идентификатор                            : 0
Формат                                   : MPEG-4 Visual
Профиль формата                          : Advanced Simple@L5
Параметр BVOP формата                    : 1
Параметр QPel формата                    : Нет
Параметр GMC формата                     : Без точки перехода
Параметр матрицы формата                 : Выборочная
Идентификатор кодека                     : XVID
Идентификатор кодека/Подсказка           : XviD
Продолжительность                        : 2 ч. 5 м.
Битрейт                                  : 1461 Кбит/сек
Ширина                                   : 720 пикселей
Высота                                   : 304 пикселя
Соотношение сторон                       : 2,35:1
Частота кадров                           : 24,000 кадра/сек
Цветовое пространство                    : YUV
Субдискретизация насыщенности            : 4:2:0
Битовая глубина                          : 8 бит
Тип развёртки                            : Прогрессивная
Метод сжатия                             : С потерями
Бит/(Пиксели*Кадры)                      : 0.278
Размер потока                            : 1,28 Гбайт (88%)
Библиотека кодирования                   : XviD 1.2.1 (UTC 2008-12-04)

Аудио
Идентификатор                            : 1
Формат                                   : AC-3
Формат/Информация                        : Audio Coding 3
Расширение режима                        : CM (complete main)
Параметр Endianness формата              : Big
Идентификатор кодека                     : 2000
Продолжительность                        : 2 ч. 5 м.
Вид битрейта                             : Постоянный
Битрейт                                  : 192 Кбит/сек
Каналы                                   : 2 канала
Расположение каналов                     : Front: L R
Частота                                  : 48,0 КГц
Битовая глубина                          : 16 бит
Метод сжатия                             : С потерями
Размер потока                            : 172 Мбайт (12%)
Выравнивание                             : Разделение по промежуткам
Продолжительность промежутка             : 42  мс. (1,00 видеокадр)
Время предзагрузки промежутка            : 500  мс.

pb.wtf



Скачать Дикие сердцем через торрент http://s020.radikal.ru/i712/1506/50/d5d33f842c1f.jpg Скачать фильм Дикие сердцем через торрент бесплантно в хорошем качестве Описание: Сейлор и Лула спасаются от безжалостной команды наемных убийц, нанятых безумной матерью Лулы Мариэттой. В погоню за беглецами ... 10 10 4
Info! Золотая раздача, скачанное не засчитывается.
Торрент: Зарегистрирован [2015-06-07 10:14] · скачан: 2 раз
Статус: √ проверено
Размер: 1.45 GB
Как cкачать? Как скачать Дикие сердцем через торрент | qTorrent

% Раздел Тема Автор DL S | L
Фильмы [HD 720p, 1080p] (Хороший звук DUB, MVO) [ 11.99 GB ] Дикие сердцем / Wild at Heart [1990 BDRip 720p] 3xMVO + 3xAVO - KORSAR kisa1980 Скачать
2 | 0


Последний раз редактировалось: SolidSnake (2015-06-09 09:20), всего редактировалось 2 раз(а)
Отключить всю рекламу на сайте

08-06-2015 09:58 Дикие сердцем Скачать торрент  

    Дорогой пользователь! Огромная просьба, поблагодарите релизера, оцените раздачу и оставьте свои комментарий, если Вы скачали Дикие сердцем через торрент бесплатно! Внесите свою лепту в развитие PiratBit!
    Комментировать посты могут только пользователи прошедшие не сложную регистрацию
    Показать сообщения:    

    Дикие сердцем через торрент
    Скачать бесплатно Дикие сердцем
    Дикие сердцем скачать торрент
    Дикие сердцем смотреть онлайн
    Cкачать фильм Дикие сердцем бесплатно
    Дикие сердцем скачать торрент в хорошем качестве
    Дикие сердцем смотреть онлайн бесплатно в хорошем качестве


    Вы не можете начинать темы
    Вы не можете отвечать на сообщения
    Вы не можете редактировать свои сообщения
    Вы не можете удалять свои сообщения
    Вы не можете голосовать в опросах
    Вы не можете прикреплять файлы к сообщениям
    Вы можете скачивать файлы