Ссылка на приватное зеркало всего за 1$. Внимание количество ограничено!!!

iTunes

iTunes

iTunes

1

iTunes

iTunes

iTunes

WEBRip

iTunes

30
pack

$ от Little Big

ВАЖНО

!!Акция!!

Alien_RageХит недели

RePack

Resident Evil 21

ИГРА 18+

pack

RePack

jed

!!Акция!!

Alien_Rage

RePack

fifa19

RePack

Assassins Creed: Odyssey

RePack

NEED FOR SPEED™ PAYBACK

4 сезон

9 сезон

Бесстыжие 9 сезон

Все сериалы

все сериалы на PB.wtf

RePack

FAR CRY 5
  

Красивая и Безумная / Beautiful & Twisted (Кристофер Залла / Christopher Zalla) [2015, США, триллер, драма, криминал, WEB-DLRip, MVO] [Лицензия / iTunes] pb.wtf

Красивая и Безумная через торрент pb.wtf

Размер: 1.37 GB | Добавлен: 5 лет 2 мес. назад | Торрент скачан:530 раз
Скачать  

09-06-2015 07:10 Красивая и Безумная Скачать торрент  

Красивая и Безумная / Beautiful & Twisted


  • Год выпуска: 2015
  • Страна: США
  • Жанр: триллер, драма, криминал
  • Продолжительность: 01:26:14
  • Перевод: Профессиональный многоголосый закадровый) [Лицензия / iTunes]

  • Режиссер: Кристофер Залла / Christopher Zalla
  • В ролях:

    Роб Лоу (Ben Novack Jr.), Пас Вега (Narcy), Кэндис Берген (Bernice), Сейшелл Гэбриел (May), Джуд Чикколелла (Detective Dalton), Мишель Херд (Det. Sgt. Gloria Mosley), Уолтер ФонтЛеРой (Detective Scott), Сони Брингас (Young May), Zachary Rifkin (Young Ben), Austin Wakefield (Teenage Ben), Винсент Дюваль (Ben Novack Sr.), Шарисс Бэйкер-Бернар (Young Bernice)

  • Описание:
    В июле 2009 года Бен Новак, унаследовавший сеть отелей Fontainebleau, был жестоко убит в номере отеля в пригороде Нью-Йорка. Своими ужасающими садистскими деталями страшное убийство вызвало мгновенный интерес средств массовой информации. Говорили, что зверское убийство было спланировано женщиной, пытавшейся уничтожить своего мужа и завладеть его состоянием.
  • Рейтинг:



  • Качество: WEB-DLRip
  • Формат: :AVI
  • Видео кодек: XviD
  • Аудио кодек: AC3
  • Видео: 720x400 (16:9), 1788 kbps, 23,976 fps, 0,259 bpp
  • Аудио: 5.1 / 48 kHz / 384 kbps / 16 bit
  • Релиз от:

    Код:

    General
    Complete name                            : D:\Фильмы\Krasivaja i bezumnaja.2015.P.WEB-DLRip.ELEKTRI4KA.Uniongang.tv.avi
    Format                                   : AVI
    Format/Info                              : Audio Video Interleave
    File size                                : 1.37 GiB
    Duration                                 : 1h 26mn
    Overall bit rate                         : 2 271 Kbps
    Movie name                               : Krasivaja i bezumnaja.2015.P.WEB-DLRip.ELEKTRI4KA.Uniongang.tv
    Director                                 : Дракоша
    Writing application                      : VirtualDubMod 1.5.10.3 | www.virtualdub-fr.org || (build 2550/release)
    Copyright                                : UNIONGANG&RUSTORRENTS

    Video
    ID                                       : 0
    Format                                   : MPEG-4 Visual
    Format profile                           : Advanced Simple@L5
    Format settings, BVOP                    : 3
    Format settings, QPel                    : No
    Format settings, GMC                     : No warppoints
    Format settings, Matrix                  : Default (H.263)
    Codec ID                                 : XVID
    Codec ID/Hint                            : XviD
    Duration                                 : 1h 26mn
    Bit rate                                 : 1 788 Kbps
    Width                                    : 720 pixels
    Height                                   : 400 pixels
    Display aspect ratio                     : 16:9
    Frame rate                               : 23.976 fps
    Color space                              : YUV
    Chroma subsampling                       : 4:2:0
    Bit depth                                : 8 bits
    Scan type                                : Progressive
    Compression mode                         : Lossy
    Bits/(Pixel*Frame)                       : 0.259
    Stream size                              : 1.08 GiB (79%)
    Writing library                          : XviD 73

    Audio
    ID                                       : 1
    Format                                   : AC-3
    Format/Info                              : Audio Coding 3
    Mode extension                           : CM (complete main)
    Codec ID                                 : 2000
    Duration                                 : 1h 26mn
    Bit rate mode                            : Constant
    Bit rate                                 : 384 Kbps
    Channel(s)                               : 6 channels
    Channel positions                        : Front: L C R, Side: L R, LFE
    Sampling rate                            : 48.0 KHz
    Bit depth                                : 16 bits
    Compression mode                         : Lossy
    Stream size                              : 237 MiB (17%)
    Alignment                                : Split accross interleaves




    Скриншоты:
    скриншот   скриншот   скриншот   скриншот   скриншот  
    скриншот  


    pb.wtf



  • Скачать Красивая и Безумная через торрент http://i2.imageban.ru/out/2015/06/09/0870bf6fc036e428597085ddb7daa40c.jpg Скачать фильм Красивая и Безумная через торрент бесплантно в хорошем качестве Описание: В июле 2009 года Бен Новак, унаследовавший сеть отелей Fontainebleau, был жестоко убит в номере отеля в пригороде Нью-Йорка. ... 9.3 10 20
    Торрент: Зарегистрирован [2015-06-09 07:10] · скачан: 530 раз
    Статус: √ проверено
    Размер: 1.37 GB
    Как cкачать? Как скачать Красивая и Безумная через торрент | qTorrent

    28-11-2019 20:33  

    Отключить всю рекламу на сайте

      Дорогой пользователь! Огромная просьба, поблагодарите релизера, оцените раздачу и оставьте свои комментарий, если Вы скачали Красивая и Безумная через торрент бесплатно! Внесите свою лепту в развитие PiratBit!
      Комментировать посты могут только пользователи прошедшие не сложную регистрацию
      Показать сообщения:    

      Красивая и Безумная через торрент
      Скачать бесплатно Красивая и Безумная
      Красивая и Безумная скачать торрент
      Красивая и Безумная смотреть онлайн
      Cкачать фильм Красивая и Безумная бесплатно
      Красивая и Безумная скачать торрент в хорошем качестве
      Красивая и Безумная смотреть онлайн бесплатно в хорошем качестве


      Вы не можете начинать темы
      Вы не можете отвечать на сообщения
      Вы не можете редактировать свои сообщения
      Вы не можете удалять свои сообщения
      Вы не можете голосовать в опросах
      Вы не можете прикреплять файлы к сообщениям
      Вы можете скачивать файлы