Ссылка на приватное зеркало нашего сайта всего за 1$. Внимание количество ограничено!!!

2 сезон

iTunes

1 сезон

1

2 сезон

2 сезон

iTunes

1 сезон

RePack

30

Ultimate

ВАЖНО

ИГРА 18+

pack

RePack

MK11
pack

Забери бонус

RePack

jed

!!Акция!!

Alien_Rage

RePack

fifa19

RePack

Assassins Creed: Odyssey

RePack

NEED FOR SPEED™ PAYBACK

4 сезон

9 сезон

Бесстыжие 9 сезон

Все сериалы

все сериалы на PB.wtf

RePack

FAR CRY 5
  

Индиана Джонс: Квадрология / Raiders of the Lost Ark: Quadrilogy [1981-2008, США, боевик, приключения, BDRip 1080p / 60 FPS, MVO+Дубляж] от R.G. HD-Films pb.wtf

Индиана Джонс: Квадрология через торрент pb.wtf

Размер: 57.8 GB | Добавлен: 5 лет 5 мес. назад | Торрент скачан:214 раз
Скачать  

09-06-2015 12:45 Индиана Джонс: Квадрология Скачать торрент  

Данный релиз принадлежит к моим ранним работам.Так что качество немного хуже того что на данный момент в последних моих раздачах

Название: Индиана Джонс: В поисках утраченного ковчега
Оригинальное название: Raiders of the Lost Ark
Год выпуска: 1981
Страна: США
Жанр: боевик, приключения
Продолжительность: 01:55:19
Перевод: Профессиональный многоголосый
Субтитры: русские (Полные), английские (Полные)
Режиссер: Стивен Спилберг / Steven Spielberg
В ролях: Харрисон Форд (Indy), Карен Аллен (Marion Ravenwood), Пол Фримен (Dr. René Belloq), Рональд Лейси (Major Arnold Toht), Джон Рис-Дэвис (Sallah), Денхолм Эллиот (Dr. Marcus Brody), Альфред Молина (Satipo), Вольф Калер (Colonel Dietrich), Энтони Хиггинс (Gobler), Вик Тэблиан (Barranca / Monkey Man), Дон Феллоуз (Col. Musgrove), Уильям Хуткинс (Major Eaton)
Описание:
Известный археолог и специалист по оккультным наукам доктор Джонс получает опасное задание от правительства США. Он должен отправиться на поиски уникальной реликвии - священного Ковчега. Но Индиана и не подозревает, что аналогичный приказ уже получили тайные агенты Адольфа Гитлера...
Рейтинг
kinopoisk.ru: 8.012 (65 335)
imdb.com: 8.60 (571 407)
MPAA: PG - Рекомендуется присутствие родителей
Автор рипа:Tiberiumsun69

Качество: BDRip 1080p / 60 FPS
Формат: MKV
Видео кодек: AVC
Аудио кодек:AC3
Видео: AVC, 1920x816 (2,35:1), 16000 kbps, 59,940 fps, 0,171 bpp
Аудио №1: русский / AC3 / 5.1 / 48 kHz / 448 kbps / 16 bit |Многоголосый, закадровый НТВ+|
Аудио №2: английский / AC3 / 5.1 / 48 kHz / 640 kbps / 16 bit
Навигация по главам: есть
Общее
Уникальный идентификатор : 253810068567531760363493843329091133016 (0xBEF20A871C38E07F848DFA873DF85E58)
Полное имя : F:\Индиана Джонс 1080p\Индиана Джонс 1 В поисках утраченного ковчега.mkv
Формат : Matroska
Версия формата : Version 4 / Version 2
Размер файла : 13,8 Гбайт
Продолжительность : 1 ч. 55 м.
Общий поток : 17,1 Мбит/сек
Дата кодирования : UTC 2014-04-10 23:07:09
Программа кодирования : mkvmerge v6.8.0 ('Theme for Great Cities') 64bit built on Mar 2 2014 21:34:26
Библиотека кодирования : libebml v1.3.0 + libmatroska v1.4.1

Видео
Идентификатор : 1
Формат : AVC
Формат/Информация : Advanced Video Codec
Профиль формата : High@L4.1
Параметр CABAC формата : Да
Параметр ReFrames формата : 5 кадров
Идентификатор кодека : V_MPEG4/ISO/AVC
Продолжительность : 1 ч. 55 м.
Битрейт : 16,0 Мбит/сек
Ширина : 1920 пикселей
Высота : 816 пикселей
Соотношение сторон : 2,35:1
Режим частоты кадров : Постоянный
Частота кадров : 59,880 кадров/сек
Частота кадров в оригинале : 59,940 кадров/сек
Цветовое пространство : YUV
Субдискретизация насыщенности : 4:2:0
Битовая глубина : 8 бит
Тип развёртки : Прогрессивная
Бит/(Пиксели*Кадры) : 0.171
Размер потока : 12,6 Гбайт (92%)
Библиотека кодирования : x264 core 130 r2273 b3065e6
Настройки программы : cabac=1 / ref=5 / deblock=1:-1:-1 / analyse=0x3:0 / me=umh / subme=9 / psy=1 / psy_rd=1.00:0.10 / mixed_ref=1 / me_range=24 / chroma_me=0 / trellis=1 / 8x8dct=1 / cqm=0 / deadzone=21,11 / fast_pskip=0 / chroma_qp_offset=-3 / threads=6 / lookahead_threads=1 / sliced_threads=0 / nr=0 / decimate=0 / interlaced=0 / bluray_compat=0 / constrained_intra=0 / bframes=5 / b_pyramid=2 / b_adapt=2 / b_bias=0 / direct=3 / weightb=1 / open_gop=0 / weightp=2 / keyint=250 / keyint_min=25 / scenecut=40 / intra_refresh=0 / rc=2pass / mbtree=0 / bitrate=16000 / ratetol=1.0 / qcomp=0.60 / qpmin=0 / qpmax=69 / qpstep=4 / cplxblur=20.0 / qblur=0.5 / ip_ratio=1.40 / pb_ratio=1.30 / aq=1:0.90
Язык : English
Default : Да
Forced : Нет

Аудио #1
Идентификатор : 2
Формат : AC-3
Формат/Информация : Audio Coding 3
Расширение режима : CM (complete main)
Параметр Endianness формата : Big
Идентификатор кодека : A_AC3
Продолжительность : 1 ч. 55 м.
Вид битрейта : Постоянный
Битрейт : 448 Кбит/сек
Каналы : 6 каналов
Расположение каналов : Front: L C R, Side: L R, LFE
Частота : 48,0 КГц
Битовая глубина : 16 бит
Метод сжатия : С потерями
Размер потока : 370 Мбайт (3%)
Заголовок : MVO (NTV+)
Язык : Russian
Default : Да
Forced : Нет

Аудио #2
Идентификатор : 3
Формат : AC-3
Формат/Информация : Audio Coding 3
Расширение режима : CM (complete main)
Параметр Endianness формата : Big
Идентификатор кодека : A_AC3
Продолжительность : 1 ч. 55 м.
Вид битрейта : Постоянный
Битрейт : 640 Кбит/сек
Каналы : 6 каналов
Расположение каналов : Front: L C R, Side: L R, LFE
Частота : 48,0 КГц
Битовая глубина : 16 бит
Метод сжатия : С потерями
Размер потока : 528 Мбайт (4%)
Заголовок : Original
Язык : English
Default : Нет
Forced : Нет

Текст #1
Идентификатор : 4
Формат : UTF-8
Идентификатор кодека : S_TEXT/UTF8
Идентификатор кодека/Информация : UTF-8 Plain Text
Заголовок : Full
Язык : Russian
Default : Нет
Forced : Нет

Текст #2
Идентификатор : 5
Формат : UTF-8
Идентификатор кодека : S_TEXT/UTF8
Идентификатор кодека/Информация : UTF-8 Plain Text
Заголовок : Full
Язык : English
Default : Нет
Forced : Нет

Меню
00:00:00.000 : :Chapter 01
00:03:16.528 : :Chapter 02
00:05:44.634 : :Chapter 03
00:09:51.131 : :Chapter 04
00:12:49.349 : :Chapter 05
00:15:23.630 : :Chapter 06
00:20:27.433 : :Chapter 07
00:22:58.416 : :Chapter 08
00:28:51.354 : :Chapter 09
00:33:42.393 : :Chapter 10
00:36:23.389 : :Chapter 11
00:40:04.818 : :Chapter 12
00:42:16.157 : :Chapter 13
00:46:41.507 : :Chapter 14
00:49:32.927 : :Chapter 15
00:51:00.931 : :Chapter 16
00:55:11.141 : :Chapter 17
00:58:33.217 : :Chapter 18
01:03:05.738 : :Chapter 19
01:08:26.143 : :Chapter 20
01:10:25.345 : :Chapter 21
01:15:33.153 : :Chapter 22
01:22:24.354 : :Chapter 23
01:25:43.762 : :Chapter 24
01:29:57.515 : :Chapter 25
01:34:30.662 : :Chapter 26
01:38:06.171 : :Chapter 27
01:41:06.060 : :Chapter 28
01:44:06.823 : :Chapter 29
01:47:01.412 : :Chapter 30
01:49:05.997 : :Chapter 31
01:55:18.619 : :Chapter 32

Название: Индиана Джонс и Храм судьбы
Оригинальное название: Indiana Jones and the Temple of Doom
Год выпуска: 1984
Страна: США
Жанр: боевик, приключения
Продолжительность: 01:58:28
Перевод: Профессиональный многоголосый
Субтитры: русские (Полные), английские (Полные)
Режиссер: Стивен Спилберг / Steven Spielberg
В ролях: Харрисон Форд (Indiana Jones), Кейт Кэпшоу (Willie Scott), Амриш Пури (Mola Ram), Рошан Сет (Chattar Lal), Филип Стоун (Captain Blumburtt), Джонатан Ке Кван (Short Round), Рой Чяо (Lao Che), Дэвид Ип (Wu Han), Рик Янг (Kao Kan), Цзю Чуака (Chen), Рекс Нгуи (Maitre d'), Филип Тан (Chief Henchman)
Описание:
Вторая часть невероятных похождений прославленного археолога и искателя приключений Индианы Джонса. В этот раз бесстрашный доктор Джонс совершит путешествие в сердце Гималаев вместе с ресторанной певичкой Уилли Скотт и своим верным маленьким помощником Коротышкой.
Здесь, среди величественных гор, археологу и его спутникам предстоит столкнуться с кровавым культом поклонения древней Богине Смерти - Кали. Станет ли Индиана следующим несчастным, погибшим на жутком алтаре человеческих жертвоприношений, или ему, как всегда, удастся вырваться из цепких лап страха и разобраться со злодеями.
Рейтинг
kinopoisk.ru: 7.920 (44 875)
imdb.com: 7.60 (281 273)
MPAA: PG - Рекомендуется присутствие родителей
Автор рипа:Tiberiumsun69

Качество: BDRip 1080p / 60 FPS
Формат: MKV
Видео кодек: AVC
Аудио кодек:AC3
Видео: AVC, 1920x816 (2,35:1), 16000 kbps, 59,940 fps, 0,171 bpp
Аудио №1: русский / AC3 / 5.1 / 48 kHz / 448 kbps / 16 bit |Многоголосый, закадровый НТВ+|
Аудио №2: английский / AC3 / 5.1 / 48 kHz / 640 kbps / 16 bit
Навигация по главам: есть
Общее
Уникальный идентификатор : 172374479920326783277259679886145249400 (0x81AE1E04456D7A4880539C3999946078)
Полное имя : F:\Индиана Джонс 1080p\Индиана Джонс 2 Храм судьбы.mkv
Формат : Matroska
Версия формата : Version 4 / Version 2
Размер файла : 14,1 Гбайт
Продолжительность : 1 ч. 58 м.
Общий поток : 17,1 Мбит/сек
Дата кодирования : UTC 2014-04-10 23:28:01
Программа кодирования : mkvmerge v6.8.0 ('Theme for Great Cities') 64bit built on Mar 2 2014 21:34:26
Библиотека кодирования : libebml v1.3.0 + libmatroska v1.4.1

Видео
Идентификатор : 1
Формат : AVC
Формат/Информация : Advanced Video Codec
Профиль формата : High@L4.1
Параметр CABAC формата : Да
Параметр ReFrames формата : 5 кадров
Идентификатор кодека : V_MPEG4/ISO/AVC
Продолжительность : 1 ч. 58 м.
Битрейт : 16,0 Мбит/сек
Ширина : 1920 пикселей
Высота : 816 пикселей
Соотношение сторон : 2,35:1
Режим частоты кадров : Постоянный
Частота кадров : 59,880 кадров/сек
Частота кадров в оригинале : 59,940 кадров/сек
Цветовое пространство : YUV
Субдискретизация насыщенности : 4:2:0
Битовая глубина : 8 бит
Тип развёртки : Прогрессивная
Бит/(Пиксели*Кадры) : 0.171
Размер потока : 13,0 Гбайт (92%)
Библиотека кодирования : x264 core 130 r2273 b3065e6
Настройки программы : cabac=1 / ref=5 / deblock=1:-1:-1 / analyse=0x3:0 / me=umh / subme=9 / psy=1 / psy_rd=1.00:0.10 / mixed_ref=1 / me_range=24 / chroma_me=0 / trellis=1 / 8x8dct=1 / cqm=0 / deadzone=21,11 / fast_pskip=0 / chroma_qp_offset=-3 / threads=6 / lookahead_threads=1 / sliced_threads=0 / nr=0 / decimate=0 / interlaced=0 / bluray_compat=0 / constrained_intra=0 / bframes=5 / b_pyramid=2 / b_adapt=2 / b_bias=0 / direct=3 / weightb=1 / open_gop=0 / weightp=2 / keyint=250 / keyint_min=25 / scenecut=40 / intra_refresh=0 / rc=2pass / mbtree=0 / bitrate=16000 / ratetol=1.0 / qcomp=0.60 / qpmin=0 / qpmax=69 / qpstep=4 / cplxblur=20.0 / qblur=0.5 / ip_ratio=1.40 / pb_ratio=1.30 / aq=1:0.90
Язык : English
Default : Да
Forced : Нет

Аудио #1
Идентификатор : 2
Формат : AC-3
Формат/Информация : Audio Coding 3
Расширение режима : CM (complete main)
Параметр Endianness формата : Big
Идентификатор кодека : A_AC3
Продолжительность : 1 ч. 58 м.
Вид битрейта : Постоянный
Битрейт : 448 Кбит/сек
Каналы : 6 каналов
Расположение каналов : Front: L C R, Side: L R, LFE
Частота : 48,0 КГц
Битовая глубина : 16 бит
Метод сжатия : С потерями
Размер потока : 380 Мбайт (3%)
Заголовок : MVO (NTV+)
Язык : Russian
Default : Да
Forced : Нет

Аудио #2
Идентификатор : 3
Формат : AC-3
Формат/Информация : Audio Coding 3
Расширение режима : CM (complete main)
Параметр Endianness формата : Big
Идентификатор кодека : A_AC3
Продолжительность : 1 ч. 58 м.
Вид битрейта : Постоянный
Битрейт : 640 Кбит/сек
Каналы : 6 каналов
Расположение каналов : Front: L C R, Side: L R, LFE
Частота : 48,0 КГц
Битовая глубина : 16 бит
Метод сжатия : С потерями
Размер потока : 542 Мбайт (4%)
Заголовок : Original
Язык : English
Default : Нет
Forced : Нет

Текст #1
Идентификатор : 4
Формат : UTF-8
Идентификатор кодека : S_TEXT/UTF8
Идентификатор кодека/Информация : UTF-8 Plain Text
Заголовок : Full
Язык : Russian
Default : Нет
Forced : Нет

Текст #2
Идентификатор : 5
Формат : UTF-8
Идентификатор кодека : S_TEXT/UTF8
Идентификатор кодека/Информация : UTF-8 Plain Text
Заголовок : Full
Язык : English
Default : Нет
Forced : Нет

Меню
00:00:00.000 : :Chapter 01
00:02:54.048 : :Chapter 02
00:08:07.278 : :Chapter 03
00:10:52.734 : :Chapter 04
00:12:51.479 : :Chapter 05
00:16:00.542 : :Chapter 06
00:19:50.189 : :Chapter 07
00:26:28.670 : :Chapter 08
00:28:42.971 : :Chapter 09
00:31:49.032 : :Chapter 10
00:35:21.160 : :Chapter 11
00:38:57.001 : :Chapter 12
00:41:20.518 : :Chapter 13
00:46:24.323 : :Chapter 14
00:50:42.956 : :Chapter 15
00:52:06.581 : :Chapter 16
00:56:08.364 : :Chapter 17
00:59:57.218 : :Chapter 18
01:05:57.078 : :Chapter 19
01:09:52.021 : :Chapter 20
01:13:08.550 : :Chapter 21
01:17:08.290 : :Chapter 22
01:24:01.953 : :Chapter 23
01:27:33.331 : :Chapter 24
01:29:21.104 : :Chapter 25
01:35:03.447 : :Chapter 26
01:39:23.874 : :Chapter 27
01:41:51.271 : :Chapter 28
01:43:38.795 : :Chapter 29
01:49:57.966 : :Chapter 30
01:53:10.909 : :Chapter 31
01:58:27.975 : :Chapter 32

Название: Индиана Джонс и последний крестовый поход
Оригинальное название: Indiana Jones and the Last Crusade
Год выпуска: 1989
Страна: США
Жанр: боевик, приключения
Продолжительность: 02:06:53
Перевод: Профессиональный многоголосый
Субтитры: русские (Полные), английские (Полные)
Режиссер: Стивен Спилберг / Steven Spielberg
В ролях: Харрисон Форд (Indiana Jones), Шон Коннери (Professor Henry Jones), Денхолм Эллиот (Marcus Brody), Элисон Дуди (Elsa), Джон Рис-Дэвис (Sallah), Джулиан Гловер (Walter Donovan), Ривер Феникс (Young Indy), Майкл Бирн (Vogel), Кеворк Маликян (Kazim), Роберт Эддисон (Grail Knight), Ричард Янг (Fedora), Алексей Сейл (Sultan)
Описание:
Третья часть невероятных похождений прославленного археолога и искателя приключений Индианы Джонса. На этот раз бесстрашный Индиана разыскивает самую таинственную реликвию в истории человечества - Святой Грааль. В этом археологу помогает его отец - профессор Джонс старший.
Теперь под бдительным оком своего отца и при помощи своих верных талисманов, неизменной шляпы и хлыста, Индиане предстоит совершить много благородных подвигов и потрясающих открытий. В новых странствиях храброму археологу доведется добыть чашу, которую держал в руках Иисус Христос и получить автограф... самого Адольфа Гитлера.
Рейтинг
kinopoisk.ru: 8.128 (77 770)
imdb.com: 8.30 (442 465)
MPAA: PG-13 - Детям до 13 лет просмотр не желателен
Автор рипа:Tiberiumsun69

Качество: BDRip 1080p / 60 FPS
Формат: MKV
Видео кодек: AVC
Аудио кодек:AC3
Видео: AVC, 1920x816 (2,35:1), 16000 kbps, 59,940 fps, 0,171 bpp
Аудио №1: русский / AC3 / 5.1 / 48 kHz / 448 kbps / 16 bit |Многоголосый, закадровый НТВ+|
Аудио №2: английский / AC3 / 5.1 / 48 kHz / 640 kbps / 16 bit
Навигация по главам: есть
Общее
Уникальный идентификатор : 170688224842260782114445292609271788770 (0x80695B38F4423077A24A8FD6000874E2)
Полное имя : F:\Индиана Джонс 1080p\Индиана Джонс 3 Последний крестовый поход.mkv
Формат : Matroska
Версия формата : Version 4 / Version 2
Размер файла : 15,1 Гбайт
Продолжительность : 2 ч. 6 м.
Общий поток : 17,1 Мбит/сек
Дата кодирования : UTC 2014-04-11 10:54:23
Программа кодирования : mkvmerge v6.8.0 ('Theme for Great Cities') 64bit built on Mar 2 2014 21:34:26
Библиотека кодирования : libebml v1.3.0 + libmatroska v1.4.1

Видео
Идентификатор : 1
Формат : AVC
Формат/Информация : Advanced Video Codec
Профиль формата : High@L4.1
Параметр CABAC формата : Да
Параметр ReFrames формата : 5 кадров
Идентификатор кодека : V_MPEG4/ISO/AVC
Продолжительность : 2 ч. 6 м.
Битрейт : 16,0 Мбит/сек
Ширина : 1920 пикселей
Высота : 816 пикселей
Соотношение сторон : 2,35:1
Режим частоты кадров : Постоянный
Частота кадров : 59,880 кадров/сек
Частота кадров в оригинале : 59,940 кадров/сек
Цветовое пространство : YUV
Субдискретизация насыщенности : 4:2:0
Битовая глубина : 8 бит
Тип развёртки : Прогрессивная
Бит/(Пиксели*Кадры) : 0.171
Размер потока : 13,9 Гбайт (92%)
Библиотека кодирования : x264 core 130 r2273 b3065e6
Настройки программы : cabac=1 / ref=5 / deblock=1:-1:-1 / analyse=0x3:0 / me=umh / subme=9 / psy=1 / psy_rd=1.00:0.10 / mixed_ref=1 / me_range=24 / chroma_me=0 / trellis=1 / 8x8dct=1 / cqm=0 / deadzone=21,11 / fast_pskip=0 / chroma_qp_offset=-3 / threads=6 / lookahead_threads=1 / sliced_threads=0 / nr=0 / decimate=0 / interlaced=0 / bluray_compat=0 / constrained_intra=0 / bframes=5 / b_pyramid=2 / b_adapt=2 / b_bias=0 / direct=3 / weightb=1 / open_gop=0 / weightp=2 / keyint=250 / keyint_min=25 / scenecut=40 / intra_refresh=0 / rc=2pass / mbtree=0 / bitrate=16000 / ratetol=1.0 / qcomp=0.60 / qpmin=0 / qpmax=69 / qpstep=4 / cplxblur=20.0 / qblur=0.5 / ip_ratio=1.40 / pb_ratio=1.30 / aq=1:0.90
Язык : English
Default : Да
Forced : Нет

Аудио #1
Идентификатор : 2
Формат : AC-3
Формат/Информация : Audio Coding 3
Расширение режима : CM (complete main)
Параметр Endianness формата : Big
Идентификатор кодека : A_AC3
Продолжительность : 2 ч. 6 м.
Вид битрейта : Постоянный
Битрейт : 448 Кбит/сек
Каналы : 6 каналов
Расположение каналов : Front: L C R, Side: L R, LFE
Частота : 48,0 КГц
Битовая глубина : 16 бит
Метод сжатия : С потерями
Размер потока : 407 Мбайт (3%)
Заголовок : MVO (NTV+)
Язык : Russian
Default : Да
Forced : Нет

Аудио #2
Идентификатор : 3
Формат : AC-3
Формат/Информация : Audio Coding 3
Расширение режима : CM (complete main)
Параметр Endianness формата : Big
Идентификатор кодека : A_AC3
Продолжительность : 2 ч. 6 м.
Вид битрейта : Постоянный
Битрейт : 640 Кбит/сек
Каналы : 6 каналов
Расположение каналов : Front: L C R, Side: L R, LFE
Частота : 48,0 КГц
Битовая глубина : 16 бит
Метод сжатия : С потерями
Размер потока : 581 Мбайт (4%)
Заголовок : Original
Язык : English
Default : Нет
Forced : Нет

Текст #1
Идентификатор : 4
Формат : UTF-8
Идентификатор кодека : S_TEXT/UTF8
Идентификатор кодека/Информация : UTF-8 Plain Text
Заголовок : Full
Язык : Russian
Default : Нет
Forced : Нет

Текст #2
Идентификатор : 5
Формат : UTF-8
Идентификатор кодека : S_TEXT/UTF8
Идентификатор кодека/Информация : UTF-8 Plain Text
Заголовок : Full
Язык : English
Default : Нет
Forced : Нет

Меню
00:00:00.000 : :Chapter 01
00:04:41.905 : :Chapter 02
00:08:11.031 : :Chapter 03
00:11:49.040 : :Chapter 04
00:14:14.435 : :Chapter 05
00:17:19.413 : :Chapter 06
00:22:14.583 : :Chapter 07
00:24:51.447 : :Chapter 08
00:26:52.152 : :Chapter 09
00:30:15.563 : :Chapter 10
00:36:31.564 : :Chapter 11
00:41:10.426 : :Chapter 12
00:44:41.387 : :Chapter 13
00:47:42.401 : :Chapter 14
00:50:23.729 : :Chapter 15
00:54:47.534 : :Chapter 16
00:56:31.137 : :Chapter 17
01:00:16.112 : :Chapter 18
01:03:08.743 : :Chapter 19
01:05:31.385 : :Chapter 20
01:07:47.313 : :Chapter 21
01:10:43.530 : :Chapter 22
01:13:36.328 : :Chapter 23
01:16:11.358 : :Chapter 24
01:18:57.107 : :Chapter 25
01:21:20.041 : :Chapter 26
01:23:28.420 : :Chapter 27
01:25:16.736 : :Chapter 28
01:26:58.046 : :Chapter 29
01:31:21.934 : :Chapter 30
01:36:57.061 : :Chapter 31
01:38:53.427 : :Chapter 32
01:41:32.544 : :Chapter 33
01:49:18.260 : :Chapter 34
01:56:05.667 : :Chapter 35
02:00:05.907 : :Chapter 36
02:06:53.105 : :Chapter 37

Название: Индиана Джонс и Королевство хрустального черепа
Оригинальное название: Indiana Jones and the Kingdom of the Crystal Skull
Год выпуска: 2008
Страна: США
Жанр: фантастика, боевик, триллер, приключения
Продолжительность: 02:02:32
Перевод: Дубляж
Субтитры: русские (Форсированные), русские (Полные), английские (Полные)
Режиссер: Стивен Спилберг / Steven Spielberg
В ролях: Харрисон Форд (Indiana Jones), Кейт Бланшетт (Irina Spalko), Карен Аллен (Marion Ravenwood), Шайа ЛаБаф (Mutt Williams), Рэй Уинстон («Mac» George Michale), Джон Хёрт (Professor Oxley), Джим Бродбент (Dean Charles Stanforth), Игорь Жижикин (Dovchenko), Дмитрий Дьяченко (Russian Suit), Илья Волох (Russian Suit), Эммануэль Тодоров (Russian Soldier), Павел Личникофф (Russian Soldier)
Описание:
1957 год, разгар холодной войны. Советские солдаты, возглавляемые агентом Ириной Спалько, похищают Мэрион Рэйвенвуд - давнюю возлюбленную Индианы Джонса, ставя профессора перед выбором: бездействие и смерть Мэрион или помощь советской разведке в поисках легендарного Хрустального черепа в обмен на свободу женщины.
Рейтинг
kinopoisk.ru: 7.023 (53 071)
imdb.com: 6.20 (292 649)
MPAA: PG-13 - Детям до 13 лет просмотр не желателен
Автор рипа:Tiberiumsun69

Качество: BDRip 1080p / 60 FPS
Формат: MKV
Видео кодек: AVC
Аудио кодек:AC3
Видео: AVC, 1920x800 (2,40:1), 16000 kbps, 59,940 fps, 0,171 bpp
Аудио №1: русский / AC3 / 5.1 / 48 kHz / 640 kbps / 16 bit |Дубляж|
Аудио №2: английский / AC3 / 5.1 / 48 kHz / 640 kbps / 16 bit
Навигация по главам: есть
Общее
Уникальный идентификатор : 201316690943579527047051127924211041825 (0x97742F30DC92AC12991B4CFAC26FC621)
Полное имя : F:\Индиана Джонс 1080p\Индиана Джонс 4 Королевство xрустального черепа.mkv
Формат : Matroska
Версия формата : Version 4 / Version 2
Размер файла : 14,8 Гбайт
Продолжительность : 2 ч. 2 м.
Общий поток : 17,3 Мбит/сек
Дата кодирования : UTC 2014-04-11 19:33:12
Программа кодирования : mkvmerge v6.8.0 ('Theme for Great Cities') 64bit built on Mar 2 2014 21:34:26
Библиотека кодирования : libebml v1.3.0 + libmatroska v1.4.1

Видео
Идентификатор : 1
Формат : AVC
Формат/Информация : Advanced Video Codec
Профиль формата : High@L4.1
Параметр CABAC формата : Да
Параметр ReFrames формата : 5 кадров
Идентификатор кодека : V_MPEG4/ISO/AVC
Продолжительность : 2 ч. 2 м.
Битрейт : 16,0 Мбит/сек
Ширина : 1920 пикселей
Высота : 800 пикселей
Соотношение сторон : 2,40:1
Режим частоты кадров : Постоянный
Частота кадров : 59,880 кадров/сек
Частота кадров в оригинале : 59,940 кадров/сек
Цветовое пространство : YUV
Субдискретизация насыщенности : 4:2:0
Битовая глубина : 8 бит
Тип развёртки : Прогрессивная
Бит/(Пиксели*Кадры) : 0.174
Размер потока : 13,4 Гбайт (91%)
Библиотека кодирования : x264 core 130 r2273 b3065e6
Настройки программы : cabac=1 / ref=5 / deblock=1:-1:-1 / analyse=0x3:0 / me=umh / subme=9 / psy=1 / psy_rd=1.00:0.10 / mixed_ref=1 / me_range=24 / chroma_me=0 / trellis=1 / 8x8dct=1 / cqm=0 / deadzone=21,11 / fast_pskip=0 / chroma_qp_offset=-3 / threads=6 / lookahead_threads=1 / sliced_threads=0 / nr=0 / decimate=0 / interlaced=0 / bluray_compat=0 / constrained_intra=0 / bframes=5 / b_pyramid=2 / b_adapt=2 / b_bias=0 / direct=3 / weightb=1 / open_gop=0 / weightp=2 / keyint=250 / keyint_min=25 / scenecut=40 / intra_refresh=0 / rc=2pass / mbtree=0 / bitrate=16000 / ratetol=1.0 / qcomp=0.60 / qpmin=0 / qpmax=69 / qpstep=4 / cplxblur=20.0 / qblur=0.5 / ip_ratio=1.40 / pb_ratio=1.30 / aq=1:0.90
Язык : English
Default : Да
Forced : Нет

Аудио #1
Идентификатор : 2
Формат : AC-3
Формат/Информация : Audio Coding 3
Расширение режима : CM (complete main)
Параметр Endianness формата : Big
Идентификатор кодека : A_AC3
Продолжительность : 2 ч. 2 м.
Вид битрейта : Постоянный
Битрейт : 640 Кбит/сек
Каналы : 6 каналов
Расположение каналов : Front: L C R, Side: L R, LFE
Частота : 48,0 КГц
Битовая глубина : 16 бит
Метод сжатия : С потерями
Размер потока : 561 Мбайт (4%)
Заголовок : Dub
Язык : Russian
Default : Да
Forced : Нет

Аудио #2
Идентификатор : 3
Формат : AC-3
Формат/Информация : Audio Coding 3
Расширение режима : CM (complete main)
Параметр Endianness формата : Big
Идентификатор кодека : A_AC3
Продолжительность : 2 ч. 2 м.
Вид битрейта : Постоянный
Битрейт : 640 Кбит/сек
Каналы : 6 каналов
Расположение каналов : Front: L C R, Side: L R, LFE
Частота : 48,0 КГц
Битовая глубина : 16 бит
Метод сжатия : С потерями
Размер потока : 561 Мбайт (4%)
Заголовок : Original
Язык : English
Default : Нет
Forced : Нет

Текст #1
Идентификатор : 4
Формат : UTF-8
Идентификатор кодека : S_TEXT/UTF8
Идентификатор кодека/Информация : UTF-8 Plain Text
Заголовок : forced
Язык : Russian
Default : Да
Forced : Нет

Текст #2
Идентификатор : 5
Формат : UTF-8
Идентификатор кодека : S_TEXT/UTF8
Идентификатор кодека/Информация : UTF-8 Plain Text
Заголовок : Full
Язык : Russian
Default : Нет
Forced : Нет

Текст #3
Идентификатор : 6
Формат : UTF-8
Идентификатор кодека : S_TEXT/UTF8
Идентификатор кодека/Информация : UTF-8 Plain Text
Заголовок : Full
Язык : English
Default : Нет
Forced : Нет

Меню
00:00:00.000 : :Chapter 01
00:07:21.482 : :Chapter 02
00:13:11.499 : :Chapter 03
00:21:45.304 : :Chapter 04
00:27:39.156 : :Chapter 05
00:36:58.507 : :Chapter 06
00:46:34.916 : :Chapter 07
00:55:37.458 : :Chapter 08
01:05:46.525 : :Chapter 09
01:12:08.073 : :Chapter 10
01:21:52.948 : :Chapter 11
01:29:13.930 : :Chapter 12
01:36:04.256 : :Chapter 13
01:44:23.296 : :Chapter 14
01:51:09.244 : :Chapter 15
01:55:55.030 : :Chapter 16
Просьба к переливающим на другие сайты, в оформлении указывайте пожалуйста авторство рипа - Tiberiumsun69
Поблагодарить релизера! Авторская группа в ВК
pb.wtf



Скачать Индиана Джонс: Квадрология через торрент http://i70.fastpic.ru/big/2015/0609/6d/b54cb34b3be56c5258e0643c7c37846d.jpg Скачать фильм Индиана Джонс: Квадрология через торрент бесплантно в хорошем качестве Описание: Известный археолог и специалист по оккультным наукам доктор Джонс получает опасное задание от правительства США. Он должен ... 10 10 18
Info! Золотая раздача, скачанное не засчитывается.
Торрент: Зарегистрирован [2015-06-09 12:45] · скачан: 214 раз
Статус: √ проверено
Размер: 57.8 GB
Как cкачать? Как скачать Индиана Джонс: Квадрология через торрент | qTorrent



Последний раз редактировалось: Tiberiumsun69 (2018-02-09 08:06), всего редактировалось 1 раз

28-11-2019 20:33  

Отключить всю рекламу на сайте

09-06-2015 13:15 Индиана Джонс: Квадрология Скачать торрент  

респект за такие фильмы !pb.wtf



10-06-2015 21:50 Индиана Джонс: Квадрология Скачать торрент  

где скорость и драйв оч ннадаpb.wtf



    Дорогой пользователь! Огромная просьба, поблагодарите релизера, оцените раздачу и оставьте свои комментарий, если Вы скачали Индиана Джонс: Квадрология через торрент бесплатно! Внесите свою лепту в развитие PiratBit!
    Комментировать посты могут только пользователи прошедшие не сложную регистрацию
    Показать сообщения:    

    Индиана Джонс: Квадрология через торрент
    Скачать бесплатно Индиана Джонс: Квадрология
    Индиана Джонс: Квадрология скачать торрент
    Индиана Джонс: Квадрология смотреть онлайн
    Cкачать фильм Индиана Джонс: Квадрология бесплатно
    Индиана Джонс: Квадрология скачать торрент в хорошем качестве
    Индиана Джонс: Квадрология смотреть онлайн бесплатно в хорошем качестве


    Вы не можете начинать темы
    Вы не можете отвечать на сообщения
    Вы не можете редактировать свои сообщения
    Вы не можете удалять свои сообщения
    Вы не можете голосовать в опросах
    Вы не можете прикреплять файлы к сообщениям
    Вы можете скачивать файлы