Ссылка на приватное зеркало всего за 1$. Внимание количество ограничено!!!

OK

1+1

iTunes

мы

OK

1

WEB-DLRip

Джокер

Пифагор

Ведьмак / The Witcher сериал

iTunes

ПШазам

ОК

Оно 2

iTunes

30
pack

Вам бонус

ВАЖНО

!!Акция!!

Alien_RageХит недели

RePack

Resident Evil 21

ИГРА 18+

pack

RePack

jed

RePack

fifa19

RePack

Assassins Creed: Odyssey

RePack

NEED FOR SPEED™ PAYBACK

4 сезон

9 сезон

Бесстыжие 9 сезон

Все сериалы

все сериалы на PB.wtf

RePack

FAR CRY 5
  

Красивая и безумная / Beautiful & Twisted (Кристофер Залла) [2015 г., триллер, драма, криминал, WEB-DLRip, Дубляж "iTunes"] pb.wtf

Красивая и безумная через торрент pb.wtf

Размер: 705 MB | Добавлен: 4 года 7 мес. назад | Торрент скачан:371 раз
Скачать  

10-06-2015 18:06 Красивая и безумная Скачать торрент  

Красивая и безумная / Beautiful & Twisted
Год выпуска: 2015
Страна: США / PeaceOut Productions, Silver Screen Pictures, Sony Pictures Television
Жанр: триллер, драма, криминал
Продолжительность: 01:26:14
Перевод: Дубляж (iTunes)

Режиссер: Кристофер Залла

IMDB 6.30 (130)


В ролях: Роб Лоу, Пас Вега, Кэндис Берген, Сейшелл Гэбриел, Джуд Чикколелла, Мишель Херд, Уолтер ФонтЛеРой, Сони Брингас, Захари Рифкин, Остин Уэйкфилд

Описание: В июле 2009 года Бен Новак, унаследовавший сеть отелей Fontainebleau, был жестоко убит в номере отеля в пригороде Нью-Йорка. Своими ужасающими садистскими деталями страшное убийство вызвало мгновенный интерес средств массовой информации. Говорили, что зверское убийство было спланировано женщиной, пытавшейся уничтожить своего мужа и завладеть его состоянием.

Качество: WEB-DLRip
Формат: AVI
Видео кодек: XviD
Аудио кодек: MP3
Видео: 640x360 (1.78:1), 23.976 fps, XviD build 50 ~1005 kbps avg, 0.18 bit/pixel
Аудио: 48 kHz, MPEG Layer 3, 2 ch, ~128.00 kbps avg

Общее
Полное имя : F:\кино\Красивая и Безумная.2015.WEB-DLRip.700MB.avi
Формат : AVI
Формат/Информация : Audio Video Interleave
Размер файла : 705 Мбайт
Продолжительность : 1 ч. 26 м.
Общий поток : 1143 Кбит/сек
Программа кодирования : VirtualDubMod 1.5.10.3 | www.virtualdub-fr.org || (build 2550/release)
Библиотека кодирования : VirtualDubMod build 2550/release

Видео
Идентификатор : 0
Формат : MPEG-4 Visual
Профиль формата : Advanced Simple@L5
Параметр BVOP формата : 2
Параметр QPel формата : Нет
Параметр GMC формата : Без точки перехода
Параметр матрицы формата : Default (H.263)
Идентификатор кодека : XVID
Идентификатор кодека/Подсказка : XviD
Продолжительность : 1 ч. 26 м.
Битрейт : 1006 Кбит/сек
Ширина : 640 пикселей
Высота : 360 пикселей
Соотношение сторон : 16:9
Частота кадров : 23,976 кадра/сек
Цветовое пространство : YUV
Субдискретизация насыщенности : 4:2:0
Битовая глубина : 8 бит
Тип развёртки : Прогрессивная
Метод сжатия : С потерями
Бит/(Пиксели*Кадры) : 0.182
Размер потока : 620 Мбайт (88%)
Библиотека кодирования : XviD 1.2.1 (UTC 2008-12-04)

Аудио
Идентификатор : 1
Формат : MPEG Audio
Версия формата : Version 1
Профиль формата : Layer 3
Режим : Joint stereo
Расширение режима : MS Stereo
Идентификатор кодека : 55
Идентификатор кодека/Подсказка : MP3
Продолжительность : 1 ч. 26 м.
Вид битрейта : Постоянный
Битрейт : 128 Кбит/сек
Каналы : 2 канала
Частота : 48,0 КГц
Метод сжатия : С потерями
Размер потока : 79,0 Мбайт (11%)
Выравнивание : Соединение по промежуткам
Продолжительность промежутка : 42 мс. (1,00 видеокадр)
Время предзагрузки промежутка : 504 мс.
Библиотека кодирования : LAME3.99r
Настройки программы : -m j -V 4 -q 2 -lowpass 17 -b 128

pb.wtf



Скачать Красивая и безумная через торрент http://pic1.kartinco.top/images/10/itcss.jpg Скачать фильм Красивая и безумная через торрент бесплантно в хорошем качестве Описание: В июле 2009 года Бен Новак, унаследовавший сеть отелей Fontainebleau, был жестоко убит в номере отеля в пригороде Нью-Йорка. ... 9.8 10 12
Торрент: Зарегистрирован [2015-06-10 18:06] · скачан: 371 раз
Статус: √ проверено
Размер: 705 MB
Как cкачать? Как скачать Красивая и безумная через торрент | qTorrent

28-11-2019 20:33  

Отключить всю рекламу на сайте

11-06-2015 12:06 Красивая и безумная Скачать торрент  

Найдите 10 отличий дубляжа и многоголоски.pb.wtf



13-06-2015 17:09 Красивая и безумная Скачать торрент  

какой дубляж sarcastic фильм в многоголоске вышел в тунцеpb.wtf



    Дорогой пользователь! Огромная просьба, поблагодарите релизера, оцените раздачу и оставьте свои комментарий, если Вы скачали Красивая и безумная через торрент бесплатно! Внесите свою лепту в развитие PiratBit!
    Комментировать посты могут только пользователи прошедшие не сложную регистрацию
    Показать сообщения:    

    Красивая и безумная через торрент
    Скачать бесплатно Красивая и безумная
    Красивая и безумная скачать торрент
    Красивая и безумная смотреть онлайн
    Cкачать фильм Красивая и безумная бесплатно
    Красивая и безумная скачать торрент в хорошем качестве
    Красивая и безумная смотреть онлайн бесплатно в хорошем качестве


    Вы не можете начинать темы
    Вы не можете отвечать на сообщения
    Вы не можете редактировать свои сообщения
    Вы не можете удалять свои сообщения
    Вы не можете голосовать в опросах
    Вы не можете прикреплять файлы к сообщениям
    Вы можете скачивать файлы