Ссылка на приватное зеркало нашего сайта всего за 1$. Внимание количество ограничено!!!

2 сезон

iTunes

1 сезон

1

iTunes

iTunes

iTunes

1 сезон

RePack

30

ИГРА 18+

pack

ВАЖНО

!!Акция!!

Alien_RageХит недели

RePack

MK11
pack

Забери бонус

RePack

jed

!!Акция!!

Alien_Rage

RePack

fifa19

RePack

Assassins Creed: Odyssey

RePack

NEED FOR SPEED™ PAYBACK

4 сезон

9 сезон

Бесстыжие 9 сезон

Все сериалы

все сериалы на PB.wtf

RePack

FAR CRY 5
  

Драконы Нью-Йорка / Revenge of the Green Dragons (Вэй Кеунг Лау / Wai Keung Lau, Эндрю Лу / Andrew Loo) [2014, США, Гонконг, боевик, драма, криминал, BDRip 720p, Дубляж] / Чистый звук + ENG pb.wtf

Драконы Нью-Йорка через торрент pb.wtf

Размер: 4.81 GB | Добавлен: 5 лет 4 мес. назад | Торрент скачан:210 раз
Скачать  

11-06-2015 06:55 Драконы Нью-Йорка Скачать торрент  

Драконы Нью-Йорка / Revenge of the Green Dragons
«Бойся своей мечты»


  • Год выпуска: 2014
  • Страна: США, Гонконг
  • Жанр: боевик, драма, криминал
  • Продолжительность: 01:34:50
  • Перевод: Дубляж - [Чистый звук]
  • Субтитры: английские, английские (SDH),
  • Режиссер: Вэй Кеунг Лау / Wai Keung Lau, Эндрю Лу / Andrew Loo
  • В ролях:

    Джастин Чон (Sonny), Кевин Ву (Steven), Гарри Шам мл. (Paul Wong), Рэй Лиотта (Michael Bloom), Джин Онг (Detective Tang), Сюя Чанг (Tina), Карл Ли (Chicken Wing), Леонард Ву (Chen I Chung), Евгения Йуан (Snakehead Mama), Селия Ау (Bobo), Майкл Грегори Фанг (Young Steven), Алекс Фокс (Young Sonny)

  • Описание:
    В основу триллера «Драконы Нью-Йорка» легли реальные события 90-х годов. Журналист Фредерик Найар был колумнистом в нью-йоркском издании. И вот в своей небольшой колонке он написал историю двух братьев-иммигрантов, попавших в бандитскую группировку под названием «Зеленые драконы». Эта история, написанная к тому же увлекательно, заинтересовала большое количество читателей, одним из которых оказался продюсер Мартин Скорсезе, написавший позже сценарий фильма «Драконы Нью-Йорка» по описанным событиям этой на самом деле имевшей место быть истории. Итак, в начале картины зритель знакомится с братьями-иммигрантами, которые волею судьбы попадают в местную банду, именуемую «Зеленые драконы». Для выживания братьям надо было быть сильными, а этого у них не отнять. Они совершали самые отчаянные поступки и достаточно быстро заняли лидирующие позиции в банде и заслужили авторитет. К их мнению стали прислушиваться, и даже глава банды считал их достойными людьми. Все было для них относительно хорошо, но в историю вмешивается девушка, в которую влюбляется один из братьев, но любовь оказалась безответной. Одержимый желанием овладеть девушкой парень начинает бороться за ее внимание. Главе «Зеленых драконов» девушка так же приглянулось, и он вступил в борьбу за нее. Естественно девушка выбрала более авторитетного кавалера, а влюбленный парень, в процессе борьбы, погибает. Оставшийся в живых брат не может этого так оставить и начинает мстить всем причастным к гибели. Что из этого выйдет – смотрите сами.
  • Рейтинг:



  • Качество: BDRip 720p
  • Формат: :MKV
  • Видео кодек: AVC
  • Аудио кодек: AC3
  • Видео: 1280x534 (2.40:1), 6099 kbps, 23,976 fps, 0,372 bpp
  • Аудио №1: русский / 2.0 / 48 kHz / 384 kbps / 16 bit
  • Аудио №2: английский / 5.1 / 48 kHz / 640 kbps / 16 bit
  • Релиз от: GEKADOL

    Код:

    General
    Unique ID                                : 212393543689172776454721636444496106829 (0x9FC98232342E2EC08E7279F7DF82954D)
    Complete name                            : D:\Фильмы\dPaK0HY.Hjiu.Y0Pka.2014.D.BDRip.720p.mkv
    Format                                   : Matroska
    Format version                           : Version 4 / Version 2
    File size                                : 4.81 GiB
    Duration                                 : 1h 34mn
    Overall bit rate                         : 7 268 Kbps
    Movie name                               : F2
    Encoded date                             : UTC 2015-06-11 04:59:00
    Writing application                      : mkvmerge v6.5.0 ('Isn't she lovely') built on Oct 20 2013 12:50:05
    Writing library                          : libebml v1.3.0 + libmatroska v1.4.1

    Video
    ID                                       : 1
    Format                                   : AVC
    Format/Info                              : Advanced Video Codec
    Format profile                           : High@L4.1
    Format settings, CABAC                   : Yes
    Format settings, ReFrames                : 12 frames
    Codec ID                                 : V_MPEG4/ISO/AVC
    Duration                                 : 1h 34mn
    Bit rate                                 : 6 099 Kbps
    Width                                    : 1 280 pixels
    Height                                   : 534 pixels
    Display aspect ratio                     : 2.40:1
    Original display aspect ratio            : 2.40:1
    Frame rate                               : 23.976 fps
    Color space                              : YUV
    Chroma subsampling                       : 4:2:0
    Bit depth                                : 8 bits
    Scan type                                : Progressive
    Bits/(Pixel*Frame)                       : 0.372
    Stream size                              : 4.04 GiB (84%)
    Writing library                          : x264 core 144 r2525kMod 40bb568
    Encoding settings                        : cabac=1 / ref=12 / deblock=1:-3:-3 / analyse=0x3:0x133 / me=umh / subme=10 / psy=1 / fade_compensate=0.00 / psy_rd=1.08:0.00 / mixed_ref=1 / me_range=24 / chroma_me=1 / trellis=2 / 8x8dct=1 / cqm=0 / deadzone=21,11 / fast_pskip=1 / chroma_qp_offset=-2 / threads=6 / lookahead_threads=1 / sliced_threads=0 / nr=0 / decimate=1 / interlaced=0 / bluray_compat=0 / constrained_intra=0 / fgo=0 / bframes=11 / b_pyramid=2 / b_adapt=2 / b_bias=0 / direct=3 / weightb=1 / open_gop=0 / weightp=2 / keyint=250 / keyint_min=23 / scenecut=40 / intra_refresh=0 / rc=crf / mbtree=0 / crf=15.8000 / qcomp=0.65 / qpmin=0 / qpmax=69 / qpstep=4 / ip_ratio=1.30 / pb_ratio=1.20 / aq=3:0.68 / zones=128335,136434,crf=18
    Language                                 : English
    Default                                  : Yes
    Forced                                   : No
    Matrix coefficients                      : BT.709-5, BT.1361, IEC 61966-2-4 709, SMPTE RP177

    Audio #1
    ID                                       : 2
    Format                                   : AC-3
    Format/Info                              : Audio Coding 3
    Mode extension                           : CM (complete main)
    Codec ID                                 : A_AC3
    Duration                                 : 1h 34mn
    Bit rate mode                            : Constant
    Bit rate                                 : 384 Kbps
    Channel(s)                               : 2 channels
    Channel positions                        : Front: L R
    Sampling rate                            : 48.0 KHz
    Bit depth                                : 16 bits
    Compression mode                         : Lossy
    Stream size                              : 260 MiB (5%)
    Language                                 : Russian
    Default                                  : Yes
    Forced                                   : No

    Audio #2
    ID                                       : 3
    Format                                   : AC-3
    Format/Info                              : Audio Coding 3
    Mode extension                           : CM (complete main)
    Codec ID                                 : A_AC3
    Duration                                 : 1h 34mn
    Bit rate mode                            : Constant
    Bit rate                                 : 640 Kbps
    Channel(s)                               : 6 channels
    Channel positions                        : Front: L C R, Side: L R, LFE
    Sampling rate                            : 48.0 KHz
    Bit depth                                : 16 bits
    Compression mode                         : Lossy
    Stream size                              : 434 MiB (9%)
    Language                                 : English
    Default                                  : No
    Forced                                   : No

    Text #1
    ID                                       : 4
    Format                                   : UTF-8
    Codec ID                                 : S_TEXT/UTF8
    Codec ID/Info                            : UTF-8 Plain Text
    Language                                 : English
    Default                                  : No
    Forced                                   : No

    Text #2
    ID                                       : 5
    Format                                   : UTF-8
    Codec ID                                 : S_TEXT/UTF8
    Codec ID/Info                            : UTF-8 Plain Text
    Title                                    : SDH
    Language                                 : English
    Default                                  : No
    Forced                                   : No

    Menu
    00:00:00.000                             : en:00:00:00.000
    00:04:23.054                             : en:00:04:23.054
    00:10:50.483                             : en:00:10:50.483
    00:16:46.088                             : en:00:16:46.088
    00:20:59.675                             : en:00:20:59.675
    00:26:03.437                             : en:00:26:03.437
    00:33:06.276                             : en:00:33:06.276
    00:40:13.953                             : en:00:40:13.953
    00:45:44.367                             : en:00:45:44.367
    00:51:39.430                             : en:00:51:39.430
    00:58:09.820                             : en:00:58:09.820
    01:03:30.932                             : en:01:03:30.932
    01:07:12.487                             : en:01:07:12.487
    01:14:33.719                             : en:01:14:33.719
    01:20:16.311                             : en:01:20:16.311
    01:25:08.770                             : en:01:25:08.770




    Скриншоты:


    pb.wtf



  • Скачать Драконы Нью-Йорка через торрент http://i2.imageban.ru/out/2015/06/11/8b7f604694dbc67b1ce00aebb18a86ca.jpg Скачать фильм Драконы Нью-Йорка через торрент бесплантно в хорошем качестве Описание: В основу триллера «Драконы Нью-Йорка» легли реальные события 90-х годов. Журналист Фредерик Найар был колумнистом в нью-йоркском ... 9.8 10 11
    Info! Золотая раздача, скачанное не засчитывается.
    Торрент: Зарегистрирован [2015-06-11 06:55] · скачан: 210 раз
    Статус: T временная
    Размер: 4.81 GB
    Как cкачать? Как скачать Драконы Нью-Йорка через торрент | qTorrent

    % Раздел Тема Автор DL S | L
    T Фильмы [HD 720p, 1080p] (Хороший звук DUB, MVO) [ 9.97 GB ] Драконы Нью-Йорка / Revenge of the Green Dragons [2014 Гонконг BDRip 1080p ] / Чистый звук + ENG GEKADOL Скачать
    1 | 0

    28-11-2019 20:33  

    Отключить всю рекламу на сайте

    07-12-2015 11:19 Драконы Нью-Йорка Скачать торрент  

    Как ф.pb.wtf



      Дорогой пользователь! Огромная просьба, поблагодарите релизера, оцените раздачу и оставьте свои комментарий, если Вы скачали Драконы Нью-Йорка через торрент бесплатно! Внесите свою лепту в развитие PiratBit!
      Комментировать посты могут только пользователи прошедшие не сложную регистрацию
      Показать сообщения:    

      Драконы Нью-Йорка через торрент
      Скачать бесплатно Драконы Нью-Йорка
      Драконы Нью-Йорка скачать торрент
      Драконы Нью-Йорка смотреть онлайн
      Cкачать фильм Драконы Нью-Йорка бесплатно
      Драконы Нью-Йорка скачать торрент в хорошем качестве
      Драконы Нью-Йорка смотреть онлайн бесплатно в хорошем качестве


      Вы не можете начинать темы
      Вы не можете отвечать на сообщения
      Вы не можете редактировать свои сообщения
      Вы не можете удалять свои сообщения
      Вы не можете голосовать в опросах
      Вы не можете прикреплять файлы к сообщениям
      Вы можете скачивать файлы