Ссылка на приватное зеркало нашего сайта всего за 1$. Внимание количество ограничено!!!

2 сезон

iTunes

1 сезон

1

2 сезон

2 сезон

iTunes

1 сезон

RePack

30

Новинка

ВАЖНО

ИГРА 18+

pack

RePack

MK11
pack

Забери бонус

RePack

jed

!!Акция!!

Alien_Rage

RePack

fifa19

RePack

Assassins Creed: Odyssey

RePack

NEED FOR SPEED™ PAYBACK

4 сезон

9 сезон

Бесстыжие 9 сезон

Все сериалы

все сериалы на PB.wtf

RePack

FAR CRY 5
  

Потерянная комната (мини-сериал) / The Lost Room (Крэйг Р. Бэксли, Майкл В. Уоткинс) [2006 г., фантастика, фэнтези, боевик, детектив][WEBRip] pb.wtf

Потерянная комната через торрент pb.wtf

Размер: 4.37 GB | Добавлен: 5 лет 5 мес. назад | Торрент скачан:342 раза
Скачать  

11-06-2015 10:20 Потерянная комната Скачать торрент  

Потерянная комната (мини-сериал) / The Lost Room «Некоторые двери лучше не открывать»

Год выпуска:2006
Страна: США
Жанр:фантастика, фэнтези, боевик, детектив
Продолжительность:04:22:10
Длительность серий: 3х ~01:30:00
Перевод:Профессиональный многоголосый
Субтитры: нет
Режиссер:Крэйг Р. Бэксли , Майкл В. Уоткинс

  • В ролях:

    Питер Краузе (Joe Miller), Джулианна Маргулис (Jennifer Bloom), Питер Джекобсон (Wally Jabrowski), Деннис Кристофер (Dr. Martin Ruber), Эйприл Грэйс (Lee Bridgewater), Эль Фаннинг (Anna Miller), Кевин Поллак (Karl Kreutzfeld), Бенжамин Петри (Isaac Kreutzfeld), Джейсон Дуглас (Anthony), Кристофер Бауэр (Lou Destefano), Харриет Сэнсом Харрис (Margaret Milne), Маргарет Чо (Suzie Kang)
  • Описание:
    Что если весь мир устроен не так просто, как нам кажется? Что если самые простые бытовые предметы обладают свойствами, которые не поддаются объяснению? И что если самый близкий Вам человек оказался в плену этих мистических событий?
    Предлагаем вам присоединиться к детективу Джо Миллеру и другим героям новейшего телефильма «Пропавшая комната» и узнать всю правду о том, что случилось в десятом номере мотеля «Саншайн» и как это изменило судьбу всего мира.

  • Мировая премьера:11 декабря 2006

    Качество:WEBRip
    Формат:AVI
    Видео кодек: XviD
    Аудио кодек:AC3
    Видео: 720x400 (1.80:1), 23.976 fps, XviD MPEG-4 ~1500 kbps avg, ~0.224 bit/pixel
    Аудио №1: 48 kHz, AC3, 3/2 (L,C,R,l,r) + LFE ch, 384.00 kbps avg MVO
    Аудио №2: 48 kHz, AC3, 3/2 (L,C,R,l,r) + LFE ch, 448.00 kbps avg


    General
    Complete name : E:\Тореннт\Lost Room\1 The Key and the Clock.avi
    Format : AVI
    Format/Info : Audio Video Interleave
    File size : 1.46 GiB
    Duration : 1h 27mn
    Overall bit rate : 2 380 Kbps
    Writing application : VirtualDubMod 1.5.10.2 (build 2542/release)
    Writing library : VirtualDubMod build 2542/release

    Video
    ID : 0
    Format : MPEG-4 Visual
    Format profile : Advanced Simple@L5
    Format settings, BVOP : Yes
    Format settings, QPel : No
    Format settings, GMC : No warppoints
    Format settings, Matrix : Default (H.263)
    Codec ID : XVID
    Codec ID/Hint : XviD
    Duration : 1h 27mn
    Bit rate : 1 534 Kbps
    Width : 720 pixels
    Height : 400 pixels
    Display aspect ratio : 16:9
    Frame rate : 23.976 fps
    Color space : YUV
    Chroma subsampling : 4:2:0
    Bit depth : 8 bits
    Scan type : Progressive
    Compression mode : Lossy
    Bits/(Pixel*Frame) : 0.222
    Stream size : 962 MiB (64%)
    Writing library : XviD 1.2.0.dev47 (UTC 2006-11-01)

    Audio #1
    ID : 1
    Format : AC-3
    Format/Info : Audio Coding 3
    Mode extension : CM (complete main)
    Format settings, Endianness : Big
    Codec ID : 2000
    Duration : 1h 27mn
    Bit rate mode : Constant
    Bit rate : 384 Kbps
    Channel(s) : 6 channels
    Channel positions : Front: L C R, Side: L R, LFE
    Sampling rate : 48.0 KHz
    Bit depth : 16 bits
    Compression mode : Lossy
    Stream size : 241 MiB (16%)
    Alignment : Split accross interleaves
    Interleave, duration : 42 ms (1.00 video frame)
    Interleave, preload duration : 500 ms

    Audio #2
    ID : 2
    Format : AC-3
    Format/Info : Audio Coding 3
    Mode extension : CM (complete main)
    Format settings, Endianness : Big
    Codec ID : 2000
    Duration : 1h 27mn
    Bit rate mode : Constant
    Bit rate : 448 Kbps
    Channel(s) : 6 channels
    Channel positions : Front: L C R, Side: L R, LFE
    Sampling rate : 48.0 KHz
    Bit depth : 16 bits
    Compression mode : Lossy
    Stream size : 281 MiB (19%)
    Alignment : Split accross interleaves
    Interleave, duration : 42 ms (1.00 video frame)
    Interleave, preload duration : 500 ms
    1 Ключ и Часы
    2 Расческа и Шкатулка
    3 Глаз и Главный объект

    Скриншоты:
    скриншот   скриншот   скриншот   скриншот   скриншот   скриншот   скриншот   скриншот  
    Приятного просмотра !pb.wtf



  • Скачать Потерянная комната через торрент http://i67.fastpic.ru/big/2014/1130/7d/59dba99be0d1fa76adf491b21646f47d.jpg Скачать фильм Потерянная комната через торрент бесплантно в хорошем качестве Описание:Что если весь мир устроен не так просто, как нам кажется? Что если самые простые бытовые предметы обладают свойствами, которые не ... 9.8 10 17
    Info! Золотая раздача, скачанное не засчитывается.
    Торрент: Зарегистрирован [2015-06-11 10:20] · скачан: 342 раз
    Статус: √ проверено
    Размер: 4.37 GB
    Как cкачать? Как скачать Потерянная комната через торрент | qTorrent

    % Раздел Тема Автор DL S | L
    Зарубежные сериалы [ 9.95 GB ] Потерянная комната / The Lost Room / Сезон: 1 / Серии: 1-3 из 3 [2006 WEB-DL 1080p] DVO [Кубик в Кубе] bober100 Скачать
    4 | 0
    Зарубежные сериалы [ 4.24 GB ] Потерянная комната / The Lost Room / Сезон: 1 / Серии: 1-3 из 3 [2006 WEB-DLRip-AVC] MVO [LostFilm] GEKADOL Скачать
    1 | 0
    Зарубежные сериалы [ 4.1 GB ] Потерянная комната / The Lost Room / серии 1-3 из 3 [2006 DVDRip MVO] Squallleonhart123 Скачать
    1 | 0
    Зарубежные сериалы [ 21.91 GB ] Потерянная комната / The Lost Room / Сезон: 1 / Серии: 1-6 из 6 [2006 HDTVRip 1080p] MVO + Original Gerbionka Скачать
    1 | 0
    Фильмы (DVD фильмы) [ 7.19 GB ] Потерянная комната / The Lost Room [2006 DVD9] johnlev Скачать
    1 | 0


    Последний раз редактировалось: Gerbionka (2015-06-12 21:11), всего редактировалось 1 раз

    28-11-2019 20:33  

    Отключить всю рекламу на сайте

    11-06-2015 14:03 Потерянная комната Скачать торрент  

    Такой фильм классный. Почему закрыли?pb.wtf



    11-06-2015 14:22 Потерянная комната Скачать торрент  

    sahalin писал(а):

    Такой фильм классный. Почему закрыли?

    Фильм обалденный! Но, никто не закрывал!pb.wtf



    11-06-2015 14:59 Потерянная комната Скачать торрент  

    да не, закрыли, должен был быть как минимум 2-ой сезон но Sci Fi решили не продолжать работу над ним из-за финансовых трудностей. а сериал действительно классный, жаль.pb.wtf



    11-06-2015 15:08 Потерянная комната Скачать торрент  

    pb.wtf



    11-06-2015 15:45 Потерянная комната Скачать торрент  

    Gerbionka писал(а):

    sahalin писал(а):

    Такой фильм классный. Почему закрыли?

    Фильм обалденный! Но, никто не закрывал!

    ммм а тебе кажется что не закрыли и закончили грамотно да?))pb.wtf



    11-06-2015 16:14 Потерянная комната Скачать торрент  

    просто жесть, пересмотрю, спасибо. pb.wtf



    11-06-2015 23:58 Потерянная комната Скачать торрент  

    Качаю) :dancee:
    Норм. фильм!pb.wtf



      Дорогой пользователь! Огромная просьба, поблагодарите релизера, оцените раздачу и оставьте свои комментарий, если Вы скачали Потерянная комната через торрент бесплатно! Внесите свою лепту в развитие PiratBit!
      Комментировать посты могут только пользователи прошедшие не сложную регистрацию
      Показать сообщения:    

      Потерянная комната через торрент
      Скачать бесплатно Потерянная комната
      Потерянная комната скачать торрент
      Потерянная комната смотреть онлайн
      Cкачать фильм Потерянная комната бесплатно
      Потерянная комната скачать торрент в хорошем качестве
      Потерянная комната смотреть онлайн бесплатно в хорошем качестве


      Вы не можете начинать темы
      Вы не можете отвечать на сообщения
      Вы не можете редактировать свои сообщения
      Вы не можете удалять свои сообщения
      Вы не можете голосовать в опросах
      Вы не можете прикреплять файлы к сообщениям
      Вы можете скачивать файлы