2 сезон

iTunes

MVO

1

2 сезон

iTunes

iTunes

1 сезон

RePack

30

Новинка

ВАЖНО

ИГРА 18+

pack

RePack

MK11
pack

Легкие деньги

RePack

jed

RePack

fifa19

RePack

RDR2

RePack

NEED FOR SPEED™ PAYBACK

4 сезон

9 сезон

Бесстыжие 9 сезон

Все сериалы

все сериалы на PB.wtf

RePack

FAR CRY 5

Anonymous, добрый день, мы не успеваем собрать деньги на оплату серверов за декабрь и январь, помогите нам пожалуйста в это трудное время. В качестве благодарности мы отключим Вам всю рекламу на сайте (укажите свой ник в строку Ваше имя)!

×
  
Magnet ссылка

ДиДжей Транахью / Dj Tronaxian Super VideoMix (Dj Tronaxian) [2015 г., Adult music clips, House, Dance Music Mixing, WEB-DLRip 720p, Оригинал] pb.wtf

ДиДжей Транахью через торрент pb.wtf

Размер: 4.4 GB | Добавлен: 5 лет 7 мес. назад | Торрент скачан:216 раз
Скачать  

11-06-2015 14:26 ДиДжей Транахью Скачать торрент  

ДиДжей Транахью / Dj Tronaxian Super VideoMix
Год выпуска: 2015
Страна: All World
Жанр: Adult music clips, House, Dance Music Mixing
Продолжительность: 04:10:07
Перевод: Оригинал

Режиссер: Dj Tronaxian

Описание:
Супер видеомиксы танцевальной музыки с очаровательными девушками Dj Tronaxian
01. Dj Tronaxian Electro House [53:33]
02. Dj Tronaxian In Da Videomix Vol 1 [34:36]
03. Dj Tronaxian In Da Videomix Vol 2 [27:54]
04. Dj Tronaxian Mini Videomix [27:35]
05. Dj Tronaxian Sexy Visions Videomix [30:34]
06. Tronaxian Dubstep Rush Videomix [42:53]
07. Tronaxian Electric Dreams Videomix [33:00]
Качество: WEB-DLRip 720p
Формат: MP4
Видео кодек: AVC
Аудио кодек: AAC
Видео: AVC, 1024x576, 1280x720 , (16:9), 25.000 fps, 2 500 Kbps (0.109 bit/pixel)
Аудио#1: AAC LC, 48.0 KHz, 2 ch, 160 Kbps, VBR
скриншот   скриншот   скриншот   скриншот   скриншот   скриншот  
скриншот   скриншот   скриншот   скриншот   скриншот   скриншот  

Общее
Полное имя : C:\Раздача\Клипы\Dj Tronaxian Super VideoMix (2015)\01. Dj Tronaxian Electro House.mp4
Формат : MPEG-4
Профиль формата : Base Media / Version 2
Идентификатор кодека : mp42
Размер файла : 1017 Мбайт
Продолжительность : 53 м.
Режим общего битрейта : Переменный
Общий поток : 2654 Кбит/сек
Дата кодирования : UTC 2015-05-12 06:54:33
Дата пометки : UTC 2015-05-12 06:54:33

Видео
Идентификатор : 1
Формат : AVC
Формат/Информация : Advanced Video Codec
Профиль формата : High@L3.1
Параметр CABAC формата : Да
Параметр ReFrames формата : 4 кадра
Идентификатор кодека : avc1
Идентификатор кодека/Информация : Advanced Video Coding
Продолжительность : 53 м.
Битрейт : 2500 Кбит/сек
Ширина : 1280 пикселей
Высота : 720 пикселей
Соотношение сторон : 16:9
Режим частоты кадров : Постоянный
Частота кадров : 25,000 кадров/сек
Цветовое пространство : YUV
Субдискретизация насыщенности : 4:2:0
Битовая глубина : 8 бит
Тип развёртки : Прогрессивная
Бит/(Пиксели*Кадры) : 0.109
Размер потока : 954 Мбайт (94%)
Библиотека кодирования : x264 core 146 r16 121396c
Настройки программы : cabac=1 / ref=3 / deblock=1:0:0 / analyse=0x3:0x113 / me=hex / subme=7 / psy=1 / psy_rd=1.00:0.00 / mixed_ref=1 / me_range=16 / chroma_me=1 / trellis=1 / 8x8dct=1 / cqm=0 / deadzone=21,11 / fast_pskip=1 / chroma_qp_offset=-2 / threads=72 / lookahead_threads=5 / sliced_threads=0 / nr=0 / decimate=1 / interlaced=0 / bluray_compat=0 / stitchable=1 / constrained_intra=0 / bframes=3 / b_pyramid=2 / b_adapt=1 / b_bias=0 / direct=1 / weightb=1 / open_gop=0 / weightp=2 / keyint=infinite / keyint_min=25 / scenecut=40 / intra_refresh=0 / rc_lookahead=40 / rc=2pass / mbtree=1 / bitrate=2500 / ratetol=1.0 / qcomp=0.60 / qpmin=5 / qpmax=69 / qpstep=4 / cplxblur=20.0 / qblur=0.5 / vbv_maxrate=2750 / vbv_bufsize=7500 / nal_hrd=none / filler=0 / ip_ratio=1.40 / aq=1:1.00
Дата кодирования : UTC 2015-05-12 06:54:33
Дата пометки : UTC 2015-05-12 06:54:33
Основные цвета : BT.709
Характеристики трансфера : BT.709
Коэффициенты матрицы : BT.709

Аудио
Идентификатор : 2
Формат : AAC
Формат/Информация : Advanced Audio Codec
Профиль формата : LC
Идентификатор кодека : 40
Продолжительность : 53 м.
Вид битрейта : Переменный
Битрейт : 160 Кбит/сек
Каналы : 2 канала
Расположение каналов : Front: L R
Частота : 48,0 КГц
Метод сжатия : С потерями
Размер потока : 61,3 Мбайт (6%)
Дата кодирования : UTC 2015-05-12 06:54:33
Дата пометки : UTC 2015-05-12 06:54:33

pb.wtf



Скачать ДиДжей Транахью через торрент http://pic.kartinco.top/images/11/r5kbr.jpg Скачать фильм ДиДжей Транахью через торрент бесплантно в хорошем качестве Описание: Супер видеомиксы танцевальной музыки с очаровательными девушками Dj Tronaxian Dj Tronaxian Electro House [53:33] Dj ... 9.2 10 15
Info! Золотая раздача, скачанное не засчитывается.
Торрент: Зарегистрирован [2015-06-11 14:26] · скачан: 216 раз
Статус: √ проверено
Размер: 4.4 GB
Как cкачать? Как скачать ДиДжей Транахью через торрент | UTorrent

28-11-2019 20:33  

Отключить всю рекламу на сайте

    Дорогой пользователь! Огромная просьба, поблагодарите релизера, оцените раздачу и оставьте свои комментарий, если Вы скачали ДиДжей Транахью через торрент бесплатно! Внесите свою лепту в развитие PiratBit!
    Комментировать посты могут только пользователи прошедшие не сложную регистрацию
    Показать сообщения:    

    ДиДжей Транахью через торрент
    Скачать бесплатно ДиДжей Транахью
    ДиДжей Транахью скачать торрент
    ДиДжей Транахью смотреть онлайн
    Cкачать фильм ДиДжей Транахью бесплатно
    ДиДжей Транахью скачать торрент в хорошем качестве
    ДиДжей Транахью смотреть онлайн бесплатно в хорошем качестве


    Вы не можете начинать темы
    Вы не можете отвечать на сообщения
    Вы не можете редактировать свои сообщения
    Вы не можете удалять свои сообщения
    Вы не можете голосовать в опросах
    Вы не можете прикреплять файлы к сообщениям
    Вы можете скачивать файлы