Ссылка на приватное зеркало всего за 1$. Внимание количество ограничено!!!

iTunes

iTunes

iTunes

1

iTunes

iTunes

iTunes

iTunes

iTunes

30
pack

Новость дня

ВАЖНО

!!Акция!!

Alien_RageХит недели

RePack

Resident Evil 21

ИГРА 18+

pack

RePack

jed

!!Акция!!

Alien_Rage

RePack

fifa19

RePack

Assassins Creed: Odyssey

RePack

NEED FOR SPEED™ PAYBACK

4 сезон

9 сезон

Бесстыжие 9 сезон

Все сериалы

все сериалы на PB.wtf

RePack

FAR CRY 5
  

Битва за Севастополь (Сергей Мокрицкий) [2015, Россия, Украина, военный, драма, мелодрама, HDRip) [Лицензия] pb.wtf

Битва за Севастополь через торрент pb.wtf

Размер: 1.37 GB | Добавлен: 5 лет назад | Торрент скачан:701 раз
Скачать  

15-05-2015 01:51 Битва за Севастополь Скачать торрент  

Битва за Севастополь


  • Год выпуска: 2015
  • Страна: Россия, Украина
  • Жанр: военный, драма, мелодрама, боевик
  • Продолжительность: 02:02:49
  • Перевод: Не требуется - [Лицензия]
  • Режиссер: Сергей Мокрицкий
  • В ролях:

    Юлия Пересильд (Людмила Павличенко), Евгений Цыганов (Леонид Киценко), Олег Васильков (снайпер Макаров), Никита Тарасов (Борис Чопак), Джоан Блэкэм (Элеонора Рузвельт), Полина Пахомова (Маша), Владимир Лилицкий (Гриша), Анатолий Кот (Николай), Нателла Абелева-Таганова (Соня), Валерий Гришко (генерал Петров), Сергей Барковский (генерал Октябрьский), Виталий Линецкий (майор КМБ)

  • Описание:
    Любовь под нескончаемым огнем противника, дружба с Элеонорой Рузвельт, выступление на конференции, повлиявшее на исход Второй мировой войны, желание жить и страх потерять любимого человека - справится ли со всем этим хрупкая женщина?
    Это реальная история Людмилы Павличенко - легендарной женщины-снайпера. Солдаты шли в бой с ее именем на устах, а враги устроили на нее охоту. На поле битвы она видела смерть и страдания, но самым серьезным испытанием для нее стала любовь, которую у нее могла забрать война...
  • Рейтинг:



  • Качество: HDRip
  • Формат: :AVI
  • Видео кодек: XviD
  • Аудио кодек: AC3
  • Видео: 720x304 (2.35:1), 1137 kbps, 24 fps, 0,217 bpp
  • Аудио: 5.1 / 48 kHz / 448 kbps / 16 bit
  • Релиз от: GEKADOL

    Код:

    General
    Complete name                            : F:\Bitva.za.Sevastoplb.2015.O.HDRip.1400Mb.avi
    Format                                   : AVI
    Format/Info                              : Audio Video Interleave
    File size                                : 1.37 GiB
    Duration                                 : 2h 2mn
    Overall bit rate                         : 1 595 Kbps
    Writing application                      : VirtualDubMod 1.5.10.2 (build 2540/release)
    Writing library                          : VirtualDubMod build 2540/release

    Video
    ID                                       : 0
    Format                                   : MPEG-4 Visual
    Format profile                           : Advanced Simple@L5
    Format settings, BVOP                    : 2
    Format settings, QPel                    : No
    Format settings, GMC                     : No warppoints
    Format settings, Matrix                  : Default (MPEG)
    Codec ID                                 : XVID
    Codec ID/Hint                            : XviD
    Duration                                 : 2h 2mn
    Bit rate                                 : 1 138 Kbps
    Width                                    : 720 pixels
    Height                                   : 304 pixels
    Display aspect ratio                     : 2.35:1
    Frame rate                               : 24.000 fps
    Color space                              : YUV
    Chroma subsampling                       : 4:2:0
    Bit depth                                : 8 bits
    Scan type                                : Progressive
    Compression mode                         : Lossy
    Bits/(Pixel*Frame)                       : 0.217
    Stream size                              : 999 MiB (71%)
    Writing library                          : XviD 1.2.1 (UTC 2008-12-04)

    Audio
    ID                                       : 1
    Format                                   : AC-3
    Format/Info                              : Audio Coding 3
    Mode extension                           : CM (complete main)
    Codec ID                                 : 2000
    Duration                                 : 2h 2mn
    Bit rate mode                            : Constant
    Bit rate                                 : 448 Kbps
    Channel(s)                               : 6 channels
    Channel positions                        : Front: L C R, Side: L R, LFE
    Sampling rate                            : 48.0 KHz
    Bit depth                                : 16 bits
    Compression mode                         : Lossy
    Stream size                              : 394 MiB (28%)
    Alignment                                : Split accross interleaves
    Interleave, duration                     : 42 ms (1.00 video frame)
    Interleave, preload duration             : 500 ms




    Скриншоты:



    pb.wtf



  • Скачать Битва за Севастополь через торрент http://i2.imageban.ru/out/2015/05/15/14a3d19ca1feb13f22f5c967083045e9.jpg Скачать фильм Битва за Севастополь через торрент бесплантно в хорошем качестве Описание: Любовь под нескончаемым огнем противника, дружба с Элеонорой Рузвельт, выступление на конференции, повлиявшее на исход Второй ... 9.9 10 19
    Торрент: Зарегистрирован [2015-05-15 01:51] · скачан: 701 раз
    Статус: √ проверено
    Размер: 1.37 GB
    Как cкачать? Как скачать Битва за Севастополь через торрент | qTorrent

    % Раздел Тема Автор DL S | L
    Наши фильмы (Blu-ray, BD-Remux, HDDVD) [ 27.72 GB ] Битва за Севастополь [2015 Военный ВОВ реальные события BDRemux 1080p] / Ger Transfer / Russian Mafia Скачать
    1 | 0
    Наши новые фильмы 2015 [ 2.18 GB ] Битва за Севастополь [2015 Военный BDRip-AVC] [] potroks Скачать
    1 | 0
    Наши фильмы (HD, WEB-DL 720p, 1080p) [ 5.74 GB ] Битва за Севастополь [2015 военный BDRip 720p] [GER-Transfer] potroks Скачать
    1 | 0
    Наши новые фильмы 2015 [ 1.46 GB ] Битва за Севастополь [2015 военный DVDRip] ninla Скачать
    1 | 0
    Документальные фильмы и телепередачи [ 500 MB ] Легенды Крыма. Битва за Севастополь. [2015 Документальный военный DVB Оригинальный] кэп Скачать
    1 | 0
    T Наши фильмы (HD, WEB-DL 720p, 1080p) [ 5.99 GB ] Битва за Севастополь / Незламна [01-04 из 04] [2015 военный WEBRip 720p / Расширенная Телеверсия] Ворон Скачать
    1 | 0
    Наши фильмы (HD, WEB-DL 720p, 1080p) [ 9.88 GB ] Битва за Севастополь [2015 военный BDRip 1080p] Original Seedtank Скачать
    1 | 0

    28-11-2019 20:33  

    Отключить всю рекламу на сайте

      Дорогой пользователь! Огромная просьба, поблагодарите релизера, оцените раздачу и оставьте свои комментарий, если Вы скачали Битва за Севастополь через торрент бесплатно! Внесите свою лепту в развитие PiratBit!
      Комментировать посты могут только пользователи прошедшие не сложную регистрацию
      Показать сообщения:    

      Битва за Севастополь через торрент
      Скачать бесплатно Битва за Севастополь
      Битва за Севастополь скачать торрент
      Битва за Севастополь смотреть онлайн
      Cкачать фильм Битва за Севастополь бесплатно
      Битва за Севастополь скачать торрент в хорошем качестве
      Битва за Севастополь смотреть онлайн бесплатно в хорошем качестве


      Вы не можете начинать темы
      Вы не можете отвечать на сообщения
      Вы не можете редактировать свои сообщения
      Вы не можете удалять свои сообщения
      Вы не можете голосовать в опросах
      Вы не можете прикреплять файлы к сообщениям
      Вы можете скачивать файлы