Всегда рабочее зеркало без VPN и Proxy просто перед .vidak.icu напиши любое слово или цифру, Пример http://iwru.vidak.icu

Лицензия

MVO

1 сезон

1

1 сезон

iTunes

1 сезон

13

1 сезон

Deluxe

pack

Рекомендуем

Repack

30

ВАЖНО

RePack

MK11

RePack

jed

RePack

fifa19

RePack

RDR2

RePack

NEED FOR SPEED™ PAYBACK

Кинопоиск HD

6 сезон

 Острые козырьки 6 сезон

Все сериалы

все сериалы на PB.wtf

RePack

FAR CRY 5
  
Magnet ссылка

Женщины против мужчин / Femmine contro maschi (Фаусто Брицци) [2011 г., Комедия, HDRip, MVO] pb.wtf

Женщины против мужчин через торрент pb.wtf

Размер: 1.36 GB | Добавлен: 7 лет 4 мес. назад | Торрент скачан:112 раз
Смотреть онлайн Женщины против мужчин | Скачать    Ребята, помогите собрать деньги на оплату серверов!!!

20-11-2012 13:48 Женщины против мужчин Скачать торрент  

Женщины против мужчин / Femmine contro maschi

Год выпуска: 2011
Страна: Италия
Жанр: Комедия
Продолжительность: 01:41:22
Перевод: Профессиональный многоголосый, [НТВ+]

Режиссер: Фаусто Брицци
Продюссер: Федерика Лучизано, Фульвио Лучизано, Розарио Барбера
Сценарий: Фаусто Брицци, Марко Мартани, Массимилиано Бруно

Премьера в мире: 4 февраля 2011



В ролях: Сальво Фикарра, Валентино Пиконе, Клаудио Бизио, Нэнси Брилли, Эмилио Солфрицци, Серена Аутьери, Франческа Инауди, Лучана Литтиззетто, Лоренцо Чезари, Уильма Де Анджелис

Описание: В центре действия картины «Женщины против мужчин» — три истории, в каждой из которых обыгрываются те или иные недостатки женщин.Первая история следует за супругами Анной и Пьеро, которые живут вместе уже двадцать лет. Отношения в семье давно стали скучными и обыденными, и, кажется, что уже ничто не может их исправить. Однако, в результате одного инцидента, муж теряет память. Воспользовавшись моментом, Анна решает переделать его в идеального человека.Второй рассказ — о мужчинах, вместе играющих в музыкальной группе. Их вторые половины, при этом, не одобряют подобного поведения, и героям картины «Женщины против мужчин» приходится водить их вокруг пальца.Третий сюжет посвящен пластическому хирургу Марчелло и его уже бывшей жене Паоле. Пара изображает из себя счастливую семью ради его мамы, восьмидесятилетней, больной женщины.

Качество: HDRip
Формат: AVI
Видео кодек: XviD
Аудио кодек: AC3
Видео: XviD, 720x304 (2.35:1), 23.976 fps, 1 475 Kbps (0.281 bit/pixel)
Аудио#1: 48 kHz, AC3 Dolby Digital, 3/2 (L,C,R,l,r) + LFE ch, ~448 kbps

General
Complete name : H:кино 2Zhenshiny.protiv.muzhcin.2011.P.HDRip.1400MB.avi
Format : AVI
Format/Info : Audio Video Interleave
File size : 1.36 GiB
Duration : 1h 41mn
Overall bit rate : 1 921 Kbps
Writing application : VirtualDubMod 1.5.10.2 (build 2540/release)
Writing library : VirtualDubMod build 2540/release

Video
ID : 0
Format : MPEG-4 Visual
Format profile : Advanced [email protected]
Format settings, BVOP : 1
Format settings, QPel : No
Format settings, GMC : No warppoints
Format settings, Matrix : Custom
Codec ID : XVID
Codec ID/Hint : XviD
Duration : 1h 41mn
Bit rate : 1 475 Kbps
Width : 720 pixels
Height : 304 pixels
Display aspect ratio : 2.35:1
Frame rate : 23.976 fps
Color space : YUV
Chroma subsampling : 4:2:0
Bit depth : 8 bits
Scan type : Progressive
Compression mode : Lossy
Bits/(Pixel*Frame) : 0.281
Stream size : 1.04 GiB (77%)
Writing library : XviD 1.2.1 (UTC 2008-12-04)

Audio
ID : 1
Format : AC-3
Format/Info : Audio Coding 3
Mode extension : CM (complete main)
Codec ID : 2000
Duration : 1h 38mn
Bit rate mode : Constant
Bit rate : 448 Kbps
Channel(s) : 6 channels
Channel positions : Front: L C R, Side: L R, LFE
Sampling rate : 48.0 KHz
Bit depth : 16 bits
Compression mode : Lossy
Delay relative to video : 2s 0ms
Stream size : 317 MiB (23%)
Alignment : Split accross interleaves
Interleave, duration : 43 ms (1.02 video frame)
Interleave, preload duration : 500 ms

pb.wtf



Скачать Женщины против мужчин через торрент https://pic1.kartinco.top/images/111/m2zr36g7xm.jpg Скачать, смотреть онлайн Женщины против мужчин бесплантно в хорошем качестве Описание: В центре действия картины «Женщины против мужчин» — три истории, в каждой из которых обыгрываются те или иные недостатки ... 10 10 4
Info! Золотая раздача, скачанное не засчитывается.
Торрент: Зарегистрирован [2015-03-25 08:29] · скачан: 112 раз
Статус: √ проверено
Размер: 1.36 GB
Как cкачать? Как скачать Женщины против мужчин через торрент | UTorrent

28-11-2019 20:33  

Отключить вcю реклaмy на сайте

    Дорогой пользователь! Огромная просьба, поблагодарите релизера, оцените раздачу и оставьте свои комментарий, если Вы скачали Женщины против мужчин через торрент бесплатно!
    Комментировать посты могут только пользователи прошедшие не сложную регистрацию
    Показать сообщения:    

    Женщины против мужчин через торрент
    Скачать бесплатно Женщины против мужчин
    Женщины против мужчин скачать торрент
    Женщины против мужчин смотреть онлайн
    Cкачать фильм Женщины против мужчин бесплатно
    Женщины против мужчин скачать торрент в хорошем качестве
    Женщины против мужчин смотреть онлайн бесплатно в хорошем качестве


    Вы не можете начинать темы
    Вы не можете отвечать на сообщения
    Вы не можете редактировать свои сообщения
    Вы не можете удалять свои сообщения
    Вы не можете голосовать в опросах
    Вы не можете прикреплять файлы к сообщениям
    Вы можете скачивать файлы