Anonymous, добрый день, присоединяйтесь к нам в Telegram!, здесь всегда актуальный адрес сайта, оперативная поддержка и многое другое!

>

5.5

iTunes

7.4

iTunes

7.9

iTunes

1

7.7

1 сезон

6.8

iTunes

7.3

1 сезон

13

6.7

1 сезон

8.3

RePack

30

ULTIMATE

pack

9.9

Лицензия

ВАЖНО

ИГРА 18+

pack

7.3

RePack

MK11

7.7

RePack

jed

7.8

RePack

fifa19

8.5

RePack

RDR2

RePack

NEED FOR SPEED™ PAYBACK

4 сезон

9 сезон

Бесстыжие 9 сезон

Все сериалы

все сериалы на PB.wtf

RePack

FAR CRY 5

Anonymous, добрый день, мы катастрофически не успеваем собрать деньги на оплату серверов, помогите нам пожалуйста 5,10,15р., для нас важна любая помощь . В качестве благодарности мы отключим Вам всю рекламу на сайте (укажите свой ник в строку Ваше имя)!

×
  
Magnet ссылка

Джейсон Стэйтем / Jason Statham [ Сборник лучших фильмов, 1998-2014, BDRip 720p] (60 Fps) от R.G. HD-Films pb.wtf

Джейсон Стэйтем через торрент pb.wtf

Качают: 1 [ 0 KB/s ]
Размер: 70.38 GB | Добавлен: 6 лет 4 мес. назад | Торрент скачан:137 раз
Смотреть онлайн Джейсон Стэйтем | Скачать    Ребята, помогите собрать деньги на оплату серверов!!!

12-06-2015 16:59 Джейсон Стэйтем Скачать торрент  

Джейсон Стэйтем / Jason StathamСборник лучших фильмов
Карты, деньги, два ствола / Lock, Stock and Two Smoking Barrels

Год выпуска: 1998
Страна: Великобритания
Жанр: комедия, криминал
Продолжительность: 01:47:23
Перевод: Профессиональный многоголосый
Субтитры: Русские (полные)

Режиссер: Гай Ричи
Продюссер: Мэттью Вон, Стефен Маркс, Джорджия Мастерс
Сценарий: Гай Ричи

Бюджет: £960 000
Премьера в мире: 28 августа 1998

IMDB 8.20 (364 575)


В ролях: Джейсон Стэйтем, Ник Моран, Джейсон Флеминг, Декстер Флетчер, Винни Джонс, Ленни МакЛин, П.Х. Мориарти, Вэс Блэквуд, Стинг, Фрэнк Харпер

Описание: Четверо молодых парней накопили каждый по 25 тысяч фунтов, чтобы один из них мог сыграть в карты с опытным шулером и матерым преступником, известным по кличке Гарри-Топор. Парень в итоге проиграл 500 тысяч, на уплату долга ему дали неделю.В противном случае и ему и его «спонсорам» каждый день будут отрубать по пальцу, а потом... Чтобы выйти из положения, ребята решили ограбить бандитов, решивших ограбить трех «ботаников», выращивающих марихуану для местного наркобарона. Но на этом приключения четверки не заканчиваются...


Качество: BDRip 720p
Формат: MKV
Видео кодек: H.264
Аудио кодек: AC3
Видео: x264, 1280 x 688 (1,85:1), 6163 kbps, 60,000 fps, ( 0.117 bpp)
Аудио#1: AC-3, 48.0 KHz, 6 ch, 384 Kbps ( MVO ( Киномания ) )
Навигация по главам: есть

скриншот   скриншот   скриншот   скриншот   скриншот   скриншот  

Общее
Уникальный идентификатор : 234940478253845453902127981778672856008 (0xB0BFE3E592FD290BA781FC2BD7FCABC8)
Полное имя : E:\Jason Statham\Lock,Stock.and.Two.Smoking.Barrels.(1998).BDRip.720p.(60 Fps).mkv
Формат : Matroska
Версия формата : Version 4 / Version 2
Размер файла : 5,01 Гбайт
Продолжительность : 1 ч. 47 м.
Общий поток : 6680 Кбит/сек
Название фильма : Карты, деньги, два ствола / Lock, Stock and Two Smoking Barrels (1998) BDRip 720p от R.G. HD-Films | 60 fps
Дата кодирования : UTC 2015-06-07 09:20:20
Программа кодирования : mkvmerge v6.2.0 ('Promised Land') built on Apr 28 2013 12:22:01
Библиотека кодирования : libebml v1.3.0 + libmatroska v1.4.0

Видео
Идентификатор : 1
Формат : AVC
Формат/Информация : Advanced Video Codec
Профиль формата : High@L4.1
Параметр CABAC формата : Да
Параметр ReFrames формата : 4 кадра
Идентификатор кодека : V_MPEG4/ISO/AVC
Продолжительность : 1 ч. 47 м.
Битрейт : 6163 Кбит/сек
Ширина : 1280 пикселей
Высота : 688 пикселей
Соотношение сторон : 1,85:1
Режим частоты кадров : Постоянный
Частота кадров : 60,000 кадров/сек
Цветовое пространство : YUV
Субдискретизация насыщенности : 4:2:0
Битовая глубина : 8 бит
Тип развёртки : Прогрессивная
Бит/(Пиксели*Кадры) : 0.117
Размер потока : 4,62 Гбайт (92%)
Заголовок : Lock, Stock and Two Smoking Barrels (1998) BDRip 720p (60 Fps).mkv
Библиотека кодирования : x264 core 130 r2273 b3065e6
Настройки программы : cabac=1 / ref=4 / deblock=1:-1:-1 / analyse=0x3:0x113 / me=umh / subme=9 / psy=1 / psy_rd=1.00:0.00 / mixed_ref=1 / me_range=24 / chroma_me=1 / trellis=2 / 8x8dct=1 / cqm=0 / deadzone=21,11 / fast_pskip=1 / chroma_qp_offset=-2 / threads=8 / lookahead_threads=1 / sliced_threads=0 / nr=0 / decimate=1 / interlaced=0 / bluray_compat=0 / constrained_intra=0 / bframes=4 / b_pyramid=2 / b_adapt=2 / b_bias=0 / direct=1 / weightb=1 / open_gop=0 / weightp=2 / keyint=250 / keyint_min=25 / scenecut=40 / intra_refresh=0 / rc_lookahead=40 / rc=crf / mbtree=1 / crf=18.0 / qcomp=0.60 / qpmin=0 / qpmax=69 / qpstep=4 / ip_ratio=1.40 / aq=1:1.00
Язык : English
Default : Да
Forced : Нет

Аудио
Идентификатор : 2
Формат : AC-3
Формат/Информация : Audio Coding 3
Расширение режима : CM (complete main)
Параметр Endianness формата : Big
Идентификатор кодека : A_AC3
Продолжительность : 1 ч. 47 м.
Вид битрейта : Постоянный
Битрейт : 384 Кбит/сек
Каналы : 6 каналов
Расположение каналов : Front: L C R, Side: L R, LFE
Частота : 48,0 КГц
Битовая глубина : 16 бит
Метод сжатия : С потерями
Размер потока : 295 Мбайт (6%)
Заголовок : MVO ( Киномания )
Язык : Russian
Default : Да
Forced : Нет

Текст
Идентификатор : 3
Формат : UTF-8
Идентификатор кодека : S_TEXT/UTF8
Идентификатор кодека/Информация : UTF-8 Plain Text
Заголовок : Русские (полные)
Язык : Russian
Default : Нет
Forced : Нет

Меню
00:00:00.000 : :Chapter 01
00:05:00.000 : :Chapter 02
00:10:00.000 : :Chapter 03
00:15:00.000 : :Chapter 04
00:20:00.000 : :Chapter 05
00:25:00.000 : :Chapter 06
00:30:00.000 : :Chapter 07
00:35:00.000 : :Chapter 08
00:40:00.000 : :Chapter 09
00:45:00.000 : :Chapter 10
00:50:00.000 : :Chapter 11
00:55:00.000 : :Chapter 12
01:00:00.000 : :Chapter 13
01:05:00.000 : :Chapter 14
01:10:00.000 : :Chapter 15
01:15:00.000 : :Chapter 16
01:20:00.000 : :Chapter 17
01:25:00.000 : :Chapter 18
01:30:00.000 : :Chapter 19
01:35:00.000 : :Chapter 20
01:40:00.000 : :Chapter 21
01:45:00.000 : :Chapter 22

Большой куш / Snatch.
Год выпуска: 2000
Страна: Великобритания, США
Жанр: комедия, криминал
Продолжительность: 01:42:46
Перевод: Профессиональный многоголосый
Субтитры: Субтитры: Русские (Goblin + полные)

Режиссер: Гай Ричи
Продюссер: Мэттью Вон, Майкл Дрейер, Стефен Маркс
Сценарий: Гай Ричи

Бюджет: $10 000 000
Премьера в мире: 23 августа 2000

IMDB 8.30 (525 406)


В ролях: Джейсон Стэйтем, Брэд Питт, Бенисио Дель Торо, Стивен Грэм, Алан Форд, Деннис Фарина, Раде Шербеджия, Винни Джонс, Джейсон Флеминг, Майк Рейд

Описание: Четырехпалый Френки должен был переправить краденый алмаз из Англии в США своему боссу Эви. Но вместо этого герой попадает в эпицентр больших неприятностей. Сделав ставку на подпольном боксерском поединке, Френки попадает в круговорот весьма нежелательных событий.Вокруг героя и его груза разворачивается сложная интрига с участием множества колоритных персонажей лондонского дна — русского гангстера, троих незадачливых грабителей, хитрого боксера и угрюмого громилы грозного мафиози. Каждый норовит в одиночку сорвать Большой Куш.

Качество: BDRip 720p
Формат: MKV
Видео кодек: H.264
Аудио кодек: AC3
Видео: x264, 1280 x 696 (1,85:1), 4357 kbps, 60,000 fps, ( 0.082 bpp)
Аудио#1: AC-3, 48.0 KHz, 6 ch, 384 Kbps ( MVO - Киномания / Позитив / R5 )
Навигация по главам: есть

скриншот   скриншот   скриншот   скриншот   скриншот   скриншот  

x264 [info]: frame I:2261 Avg QP:14.68 size:110733
x264 [info]: frame P:92466 Avg QP:17.31 size: 23345
x264 [info]: frame B:274871 Avg QP:20.93 size: 3698
x264 [info]: consecutive B-frames: 2.8% 3.7% 12.2% 13.8% 67.6%


Общее
Уникальный идентификатор : 254921210424532434186374599001009523637 (0xBFC80A0D0C6C00C4A609F57EE24B8BB5)
Полное имя : E:\Jason Statham\Snatch.(2000).BDRip.720p.(60 fps).mkv
Формат : Matroska
Версия формата : Version 4 / Version 2
Размер файла : 3,47 Гбайт
Продолжительность : 1 ч. 42 м.
Общий поток : 4837 Кбит/сек
Название фильма : Большой куш / Snatch (2000) BDRip 720p от R.G. HD-Films | 60 fps
Дата кодирования : UTC 2015-06-12 10:44:14
Программа кодирования : mkvmerge v6.2.0 ('Promised Land') built on Apr 28 2013 12:22:01
Библиотека кодирования : libebml v1.3.0 + libmatroska v1.4.0

Видео
Идентификатор : 1
Формат : AVC
Формат/Информация : Advanced Video Codec
Профиль формата : High@L4.1
Параметр CABAC формата : Да
Параметр ReFrames формата : 4 кадра
Идентификатор кодека : V_MPEG4/ISO/AVC
Продолжительность : 1 ч. 42 м.
Битрейт : 4357 Кбит/сек
Ширина : 1280 пикселей
Высота : 696 пикселей
Соотношение сторон : 1,85:1
Режим частоты кадров : Постоянный
Частота кадров : 60,000 кадров/сек
Цветовое пространство : YUV
Субдискретизация насыщенности : 4:2:0
Битовая глубина : 8 бит
Тип развёртки : Прогрессивная
Бит/(Пиксели*Кадры) : 0.082
Размер потока : 3,12 Гбайт (90%)
Заголовок : Snatch (2000) BDRip 720p (60 fps).mkv
Библиотека кодирования : x264 core 130 r2273 b3065e6
Настройки программы : cabac=1 / ref=4 / deblock=1:-3:-3 / analyse=0x3:0x113 / me=umh / subme=8 / psy=1 / psy_rd=1.00:0.00 / mixed_ref=1 / me_range=24 / chroma_me=1 / trellis=2 / 8x8dct=1 / cqm=0 / deadzone=21,11 / fast_pskip=1 / chroma_qp_offset=-2 / threads=8 / lookahead_threads=2 / sliced_threads=0 / nr=0 / decimate=1 / interlaced=0 / bluray_compat=0 / constrained_intra=0 / bframes=4 / b_pyramid=2 / b_adapt=2 / b_bias=0 / direct=1 / weightb=1 / open_gop=0 / weightp=2 / keyint=250 / keyint_min=25 / scenecut=40 / intra_refresh=0 / rc_lookahead=40 / rc=crf / mbtree=1 / crf=16.0 / qcomp=0.60 / qpmin=0 / qpmax=69 / qpstep=4 / ip_ratio=1.40 / aq=1:1.00
Язык : English
Default : Да
Forced : Нет

Аудио
Идентификатор : 2
Формат : AC-3
Формат/Информация : Audio Coding 3
Расширение режима : CM (complete main)
Параметр Endianness формата : Big
Идентификатор кодека : A_AC3
Продолжительность : 1 ч. 42 м.
Вид битрейта : Постоянный
Битрейт : 384 Кбит/сек
Каналы : 6 каналов
Расположение каналов : Front: L C R, Side: L R, LFE
Частота : 48,0 КГц
Битовая глубина : 16 бит
Метод сжатия : С потерями
Размер потока : 282 Мбайт (8%)
Заголовок : MVO - Киномания / Позитив / R5
Язык : Russian
Default : Да
Forced : Нет

Текст #1
Идентификатор : 3
Формат : UTF-8
Идентификатор кодека : S_TEXT/UTF8
Идентификатор кодека/Информация : UTF-8 Plain Text
Заголовок : Goblin
Язык : Russian
Default : Нет
Forced : Нет

Текст #2
Идентификатор : 4
Формат : UTF-8
Идентификатор кодека : S_TEXT/UTF8
Идентификатор кодека/Информация : UTF-8 Plain Text
Заголовок : Full
Язык : Russian
Default : Нет
Forced : Нет

Меню
00:00:00.000 : en:Start; Diamond Snatch
00:06:58.293 : en:Turkish & Tommy; Brick Top
00:11:53.546 : en:Boris & His Brother; Avi; Doug the Head
00:16:31.741 : en:Burying a Caravan; Gypsy Bare-Knuckle Champ
00:22:47.908 : en:Sol; Tyrone & His Getaway Car
00:30:03.218 : en:Replacement Fighter; A Dive in the Fourth
00:36:27.936 : en:All Bets Are Off; One-Punch Mickey
00:41:39.414 : en:A Problem
00:48:16.393 : en:Mickey's Offer
00:53:13.607 : en:Not a Bad Moment?
00:59:06.293 : en:Bullet-Tooth Tony; Brick Top's Persuasion
01:07:47.105 : en:A Hard Man to Track Down; All Roads Lead to Boris
01:13:24.525 : en:Desert Eagle vs. Replica; Russian Standoff
01:19:09.536 : en:Predictability of Stupidity; “Look in the Dog.”
01:28:12.579 : en:“Do Not Knock Him Out.”
01:33:58.341 : en:Action & Reaction

Противостояние / The One
Год выпуска: 2001
Страна: США
Жанр: фантастика, боевик, триллер
Продолжительность: 01:27:18
Перевод: Дубляж
Субтитры: Русские (полные)

Режиссер: Джеймс Вонг
Продюссер: Глен Морган, Чарльз Невирт, Джеймс Вонг
Сценарий: Глен Морган, Джеймс Вонг

Бюджет: $49 000 000
Премьера в мире: 2 ноября 2001

IMDB 5.90 (72 674)


В ролях: Джет Ли, Джейсон Стэйтем, Карла Гуджино, Делрой Линдо, Джеймс Моррисон, Дилан Бруно, Ричард Стейнметц, Стив Рэнкин, Такер Смоллвуд, Харриет Сэнсом Харрис,

Роли дублировали: Владимир Маслаков, Валерий Соловьев, Александра Кожевникова, Сергей Паршин, Станислав Концевич

Описание: Что делать, если твой мир рушится, когда в него вторгается безжалостный пришелец из параллельных миров? Стремясь стать сверхчеловеком, агент Межпространственного Бюро Расследований Юло совершает головокружительное сафари по параллельным мирам, охотясь за своими двойниками.Силы его растут с каждой новой жертвой, их жизненная энергия аккумулируется в нем, наделяя его невероятными способностями. Никто не знает, что случится с хрупким равновесием вселенных, если Юло достигнет своей цели — уничтожить всех двойников. Его мечта уже почти становится реальностью, когда на пути Юло становится Гэйб — полицейский из Лос-Анджелеса...


Качество: BDRip 720p / 60 Fps
Формат: MKV
Видео кодек: H.264
Аудио кодек: AC3
Видео: x264, 1280 x 536 (2,40:1), 5024 kbps, 60,000 fps, ( 0.122 bpp)
Аудио#1: AC-3, 48.0 KHz, 6 ch, 384 Kbps ( Dub )
Навигация по главам: есть



скриншот   скриншот   скриншот   скриншот   скриншот   скриншот  Автор рипа: slaventi-69
Общее
Уникальный идентификатор : 241354621782012182107367060452932828982 (0xB5933596B1152716BB350F9E3CB3BF36)
Полное имя : E:\Jason Statham\The.One.(2001).BDRip.720p.(60 Fps).mkv
Формат : Matroska
Версия формата : Version 4 / Version 2
Размер файла : 3,36 Гбайт
Продолжительность : 1 ч. 27 м.
Общий поток : 5518 Кбит/сек
Название фильма : Противостояние / The One (2001) BDRip 720p от R.G. HD-Films | 60 fps
Дата кодирования : UTC 2015-06-12 08:47:23
Программа кодирования : mkvmerge v6.2.0 ('Promised Land') built on Apr 28 2013 12:22:01
Библиотека кодирования : libebml v1.3.0 + libmatroska v1.4.0

Видео
Идентификатор : 1
Формат : AVC
Формат/Информация : Advanced Video Codec
Профиль формата : High@L4.1
Параметр CABAC формата : Да
Параметр ReFrames формата : 4 кадра
Идентификатор кодека : V_MPEG4/ISO/AVC
Продолжительность : 1 ч. 27 м.
Битрейт : 5024 Кбит/сек
Ширина : 1280 пикселей
Высота : 536 пикселей
Соотношение сторон : 2,40:1
Режим частоты кадров : Постоянный
Частота кадров : 60,000 кадров/сек
Цветовое пространство : YUV
Субдискретизация насыщенности : 4:2:0
Битовая глубина : 8 бит
Тип развёртки : Прогрессивная
Бит/(Пиксели*Кадры) : 0.122
Размер потока : 3,06 Гбайт (91%)
Заголовок : The One (2001) BDRip 720p (60 Fps).mkv
Библиотека кодирования : x264 core 130 r2273 b3065e6
Настройки программы : cabac=1 / ref=4 / deblock=1:-3:-3 / analyse=0x3:0x113 / me=umh / subme=8 / psy=1 / psy_rd=1.00:0.00 / mixed_ref=1 / me_range=24 / chroma_me=1 / trellis=2 / 8x8dct=1 / cqm=0 / deadzone=21,11 / fast_pskip=1 / chroma_qp_offset=-2 / threads=8 / lookahead_threads=2 / sliced_threads=0 / nr=0 / decimate=1 / interlaced=0 / bluray_compat=0 / constrained_intra=0 / bframes=4 / b_pyramid=2 / b_adapt=2 / b_bias=0 / direct=1 / weightb=1 / open_gop=0 / weightp=2 / keyint=250 / keyint_min=25 / scenecut=40 / intra_refresh=0 / rc_lookahead=40 / rc=crf / mbtree=1 / crf=16.0 / qcomp=0.60 / qpmin=0 / qpmax=69 / qpstep=4 / ip_ratio=1.40 / aq=1:1.00
Язык : English
Default : Да
Forced : Нет

Аудио
Идентификатор : 2
Формат : AC-3
Формат/Информация : Audio Coding 3
Расширение режима : CM (complete main)
Параметр Endianness формата : Big
Идентификатор кодека : A_AC3
Продолжительность : 1 ч. 27 м.
Вид битрейта : Постоянный
Битрейт : 384 Кбит/сек
Каналы : 6 каналов
Расположение каналов : Front: L C R, Side: L R, LFE
Частота : 48,0 КГц
Битовая глубина : 16 бит
Метод сжатия : С потерями
Размер потока : 240 Мбайт (7%)
Заголовок : Dub
Язык : Russian
Default : Да
Forced : Нет

Текст #1
Идентификатор : 3
Формат : UTF-8
Идентификатор кодека : S_TEXT/UTF8
Идентификатор кодека/Информация : UTF-8 Plain Text
Язык : Russian
Default : Нет
Forced : Нет

Текст #2
Идентификатор : 4
Формат : UTF-8
Идентификатор кодека : S_TEXT/UTF8
Идентификатор кодека/Информация : UTF-8 Plain Text
Язык : Russian
Default : Нет
Forced : Нет

Текст #3
Идентификатор : 5
Формат : UTF-8
Идентификатор кодека : S_TEXT/UTF8
Идентификатор кодека/Информация : UTF-8 Plain Text
Язык : Russian
Default : Нет
Forced : Нет

Меню
00:00:00.000 : en:Chapter 1
00:04:14.588 : en:Chapter 2
00:08:28.633 : en:Chapter 3
00:14:19.359 : en:Chapter 4
00:18:58.971 : en:Chapter 5
00:24:36.725 : en:Chapter 6
00:32:51.178 : en:Chapter 7
00:38:36.314 : en:Chapter 8
00:45:15.671 : en:Chapter 9
00:49:59.997 : en:Chapter 10
00:55:28.075 : en:Chapter 11
00:58:35.846 : en:Chapter 12
01:03:10.870 : en:Chapter 13
01:06:21.394 : en:Chapter 14
01:13:26.152 : en:Chapter 15
01:17:42.950 : en:Chapter 16

Ограбление по-итальянски / The Italian Job
Год выпуска: 2003
Страна: США, Франция, Великобритания
Жанр: боевик, триллер, криминал
Продолжительность: 01:50:32
Перевод: Дубляж + (Профессиональный двухголосый)
Субтитры: Russian

Режиссер: Ф. Гэри Грей
Продюссер: Дональд Де Лайн, Тим Беван, Гвидо Черасуоло
Сценарий: Трой Кеннеди-Мартин, Донна Пауэрс, Уэйн Пауэрс

Бюджет: $60 000 000
Премьера в мире: 30 мая 2003

IMDB 7.00 (258 525)


В ролях: Марк Уолберг, Шарлиз Терон, Эдвард Нортон, Джейсон Стэйтем, Сет Грин, Ясин Бей, Дональд Сазерленд, Фрэнки Джи, Олек Крупа, Оскар Нунез,

Роли дублировали: Иван Агапов, Лидия Вележева, Алексей Иващенко, Александр Рахленко, Сергей Бурунов

Описание: Джон Бриджер всегда умел спланировать идеальное ограбление. Вместе со своей командой опытных бандитов он провернул не одно дело, но теперь решил уйти на покой. Впереди у Бриджера последнее задание: кража золотых слитков, в которой принимают участие инсайдер Стив, водитель Роб, взрыватель Левое ухо, технарь Лайл и Чарли — верный друг Бриджера и второй «планировщик» в их команде. Ограбление, изящное и быстрое, было разыграно как по нотам, но после его завершения веселье преступников было омрачено предательством...

Качество: BDRip 720p / 60 Fps
Формат: MKV
Видео кодек: H.264
Аудио кодек: AC3
Видео: x264, 1280 x 544 (2,35:1), 4214 kbps, 59,880 fps, ( 0.101 bpp)
Аудио#1: AC-3, 48.0 KHz, 6 ch, 384 Kbps (Russian DUB (Позитив-Мультимедиа) )
Аудио#2: AC-3, 48.0 KHz, 6 ch, 384 Kbps (Russian DVO (НТВ+) )



скриншот   скриншот   скриншот   скриншот   скриншот   скриншот  Автор рипа: slaventi-69

x264 [info]: frame I:2741 Avg QP:15.34 size: 99078
x264 [info]: frame P:103525 Avg QP:18.18 size: 21121
x264 [info]: frame B:291292 Avg QP:21.55 size: 3830
x264 [info]: consecutive B-frames: 3.1% 5.1% 13.8% 17.7% 60.3%


Общее
Уникальный идентификатор : 247873987079363443989568516199569369956 (0xBA7ACB1D402D1EF3A6C0AB5C3B972B64)
Полное имя : E:\Jason Statham\The.Italian.Job(2003).BDRip.720p.(60 Fps).mkv
Формат : Matroska
Версия формата : Version 4 / Version 2
Размер файла : 3,92 Гбайт
Продолжительность : 1 ч. 50 м.
Общий поток : 5083 Кбит/сек
Название фильма : Ограбление по-итальянски / The Italian Job (2003) BDRip 720p от R.G. HD-Films | 60 fps
Дата кодирования : UTC 2015-06-12 08:54:04
Программа кодирования : mkvmerge v6.2.0 ('Promised Land') built on Apr 28 2013 12:22:01
Библиотека кодирования : libebml v1.3.0 + libmatroska v1.4.0

Видео
Идентификатор : 1
Формат : AVC
Формат/Информация : Advanced Video Codec
Профиль формата : High@L4.1
Параметр CABAC формата : Да
Параметр ReFrames формата : 4 кадра
Идентификатор кодека : V_MPEG4/ISO/AVC
Продолжительность : 1 ч. 50 м.
Битрейт : 4214 Кбит/сек
Ширина : 1280 пикселей
Высота : 544 пикселя
Соотношение сторон : 2,35:1
Режим частоты кадров : Постоянный
Частота кадров : 59,880 кадров/сек
Частота кадров в оригинале : 59,940 кадров/сек
Цветовое пространство : YUV
Субдискретизация насыщенности : 4:2:0
Битовая глубина : 8 бит
Тип развёртки : Прогрессивная
Бит/(Пиксели*Кадры) : 0.101
Размер потока : 3,25 Гбайт (83%)
Заголовок : The Italian Job (2003) BDRip 720p (60 Fps).mkv
Библиотека кодирования : x264 core 130 r2273 b3065e6
Настройки программы : cabac=1 / ref=4 / deblock=1:-3:-3 / analyse=0x3:0x113 / me=umh / subme=8 / psy=1 / psy_rd=1.00:0.00 / mixed_ref=1 / me_range=32 / chroma_me=1 / trellis=2 / 8x8dct=1 / cqm=0 / deadzone=21,11 / fast_pskip=1 / chroma_qp_offset=-2 / threads=3 / lookahead_threads=1 / sliced_threads=0 / nr=0 / decimate=1 / interlaced=0 / bluray_compat=0 / constrained_intra=0 / bframes=4 / b_pyramid=2 / b_adapt=2 / b_bias=0 / direct=1 / weightb=1 / open_gop=0 / weightp=2 / keyint=250 / keyint_min=25 / scenecut=40 / intra_refresh=0 / rc_lookahead=50 / rc=crf / mbtree=1 / crf=16.0 / qcomp=0.60 / qpmin=0 / qpmax=69 / qpstep=4 / ip_ratio=1.40 / aq=1:1.00
Язык : English
Default : Да
Forced : Нет

Аудио #1
Идентификатор : 2
Формат : AC-3
Формат/Информация : Audio Coding 3
Расширение режима : CM (complete main)
Параметр Endianness формата : Big
Идентификатор кодека : A_AC3
Продолжительность : 1 ч. 50 м.
Вид битрейта : Постоянный
Битрейт : 384 Кбит/сек
Каналы : 6 каналов
Расположение каналов : Front: L C R, Side: L R, LFE
Частота : 48,0 КГц
Битовая глубина : 16 бит
Метод сжатия : С потерями
Размер потока : 304 Мбайт (8%)
Заголовок : DUB (Позитив-Мультимедиа)
Язык : Russian
Default : Да
Forced : Нет

Аудио #2
Идентификатор : 3
Формат : AC-3
Формат/Информация : Audio Coding 3
Расширение режима : CM (complete main)
Параметр Endianness формата : Big
Идентификатор кодека : A_AC3
Продолжительность : 1 ч. 50 м.
Вид битрейта : Постоянный
Битрейт : 384 Кбит/сек
Каналы : 6 каналов
Расположение каналов : Front: L C R, Side: L R, LFE
Частота : 48,0 КГц
Битовая глубина : 16 бит
Метод сжатия : С потерями
Размер потока : 304 Мбайт (8%)
Заголовок : DVO (НТВ+)
Язык : Russian
Default : Нет
Forced : Нет

Текст
Идентификатор : 4
Формат : UTF-8
Идентификатор кодека : S_TEXT/UTF8
Идентификатор кодека/Информация : UTF-8 Plain Text
Язык : Russian
Default : Нет
Forced : Нет

Сотовый / Cellular
Год выпуска: 2004
Страна: США, Германия
Жанр: триллер, криминал
Продолжительность: 01:34:01
Перевод: Дубляж
Субтитры: Русские (полные)

Режиссер: Дэвид Р. Эллис
Продюссер: Дин Девлин, Лорен Ллойд, Ричард Бренер
Сценарий: Крис Морган, Ларри Коэн

Бюджет: $25 000 000
Премьера в мире: 10 сентября 2004

IMDB 6.50 (73 493)


В ролях: Ким Бейсингер, Крис Эванс, Джейсон Стэйтем, Уильям Х. Мэйси, Ноа Эммерик, Адам Тейлор Гордон, Ричард Берджи, Валери Крус, Джессика Бил, Эрик Этебари,

Роли дублировали: Ольга Плетнёва, Михаил Тихонов, Александр Клюквин, Игорь Тарадайкин, Олег Куценко

Описание: Джессику похищают и запирают на чердаке. Вся её надежда на неисправный, едва работающий телефон. Позвонив по первому попавшемуся номеру, она сообщает Райану (случайному молодому человеку) о своем похищении и о том, что её хотят убить, а также и её мужа и сына, за которыми теперь отправились похитители.Она не знает, где находится, а у единственного возможного спасителя скоро сядет батарейка телефона. Теперь Райану, знакомому с Джессикой только по ее паническому голосу, придется бороться со временем, которого остается все меньше, и постоянными проблемами со связью и лицом столкнуться с убийством и обманом.

Качество: BDRip 720p
Формат: MKV
Видео кодек: H.264
Аудио кодек: AC3
Видео: x264, 1280 x 720 (16:9), 6300 kbps, 59,940 fps, ( 0.114 bpp)
Аудио#1: AC-3, 48.0 KHz, 6 ch, 384 Kbps ( Dub )
Навигация по главам: есть

скриншот   скриншот   скриншот   скриншот   скриншот   скриншот  

Общее
Уникальный идентификатор : 230981037116746287225688880501059955775 (0xADC5546075FBD0B1BE0E3A82B4A32C3F)
Полное имя : E:\Jason Statham\Cellular.(2004).BDRip.720p.(60 Fps).mkv
Формат : Matroska
Версия формата : Version 4 / Version 2
Размер файла : 4,48 Гбайт
Продолжительность : 1 ч. 33 м.
Общий поток : 6820 Кбит/сек
Название фильма : Сотовый / Cellular (2004) BDRip 720p от R.G. HD-Films | 60 fps
Дата кодирования : UTC 2015-06-08 05:02:44
Программа кодирования : mkvmerge v6.2.0 ('Promised Land') built on Apr 28 2013 12:22:01
Библиотека кодирования : libebml v1.3.0 + libmatroska v1.4.0

Видео
Идентификатор : 1
Формат : AVC
Формат/Информация : Advanced Video Codec
Профиль формата : High@L4.1
Параметр CABAC формата : Да
Параметр ReFrames формата : 4 кадра
Идентификатор кодека : V_MPEG4/ISO/AVC
Продолжительность : 1 ч. 33 м.
Битрейт : 6300 Кбит/сек
Ширина : 1280 пикселей
Высота : 720 пикселей
Соотношение сторон : 16:9
Режим частоты кадров : Постоянный
Частота кадров : 59,880 кадров/сек
Частота кадров в оригинале : 59,940 кадров/сек
Цветовое пространство : YUV
Субдискретизация насыщенности : 4:2:0
Битовая глубина : 8 бит
Тип развёртки : Прогрессивная
Бит/(Пиксели*Кадры) : 0.114
Размер потока : 4,14 Гбайт (92%)
Заголовок : Cellular (2004) BDRip 720p (60 Fps).mkv
Библиотека кодирования : x264 core 130 r2273 b3065e6
Настройки программы : cabac=1 / ref=4 / deblock=1:-1:-1 / analyse=0x3:0x113 / me=umh / subme=9 / psy=1 / psy_rd=1.00:0.00 / mixed_ref=1 / me_range=24 / chroma_me=1 / trellis=2 / 8x8dct=1 / cqm=0 / deadzone=21,11 / fast_pskip=1 / chroma_qp_offset=-2 / threads=8 / lookahead_threads=1 / sliced_threads=0 / nr=0 / decimate=1 / interlaced=0 / bluray_compat=0 / constrained_intra=0 / bframes=4 / b_pyramid=2 / b_adapt=2 / b_bias=0 / direct=1 / weightb=1 / open_gop=0 / weightp=2 / keyint=250 / keyint_min=25 / scenecut=40 / intra_refresh=0 / rc_lookahead=40 / rc=crf / mbtree=1 / crf=16.0 / qcomp=0.60 / qpmin=0 / qpmax=69 / qpstep=4 / ip_ratio=1.40 / aq=1:1.00
Язык : English
Default : Да
Forced : Нет

Аудио
Идентификатор : 2
Формат : AC-3
Формат/Информация : Audio Coding 3
Расширение режима : CM (complete main)
Параметр Endianness формата : Big
Идентификатор кодека : A_AC3
Продолжительность : 1 ч. 33 м.
Вид битрейта : Постоянный
Битрейт : 384 Кбит/сек
Каналы : 6 каналов
Расположение каналов : Front: L C R, Side: L R, LFE
Частота : 48,0 КГц
Битовая глубина : 16 бит
Метод сжатия : С потерями
Размер потока : 258 Мбайт (6%)
Заголовок : Dub
Язык : Russian
Default : Да
Forced : Нет

Текст
Идентификатор : 3
Формат : VobSub
Режим смешивания : zlib
Идентификатор кодека : S_VOBSUB
Идентификатор кодека/Информация : The same subtitle format used on DVDs
Заголовок : Full
Язык : Russian
Default : Нет
Forced : Нет

Меню
00:00:00.000 : en:00:00:00.000
00:05:50.483 : en:00:05:50.483
00:12:45.431 : en:00:12:45.431
00:18:12.892 : en:00:18:12.892
00:23:16.161 : en:00:23:16.161
00:29:46.952 : en:00:29:46.952
00:36:18.009 : en:00:36:18.009
00:44:53.925 : en:00:44:53.925
00:52:58.108 : en:00:52:58.108
00:59:13.483 : en:00:59:13.483
01:06:52.275 : en:01:06:52.275
01:10:53.449 : en:01:10:53.449
01:15:35.564 : en:01:15:35.564
01:22:16.331 : en:01:22:16.331
01:24:48.016 : en:01:24:48.016
01:27:48.630 : en:01:27:48.630

Револьвер / Revolver
Год выпуска: 2005
Страна: Франция, Великобритания
Жанр: триллер, драма, криминал, детектив
Продолжительность: 01:51:21
Перевод: Дубляж
Субтитры: Русские (полные)

Режиссер: Гай Ричи
Продюссер: Виржини Силла, Люк Бессон, Стив Кристиан
Сценарий: Гай Ричи, Люк Бессон

Бюджет: $84 738
Премьера в мире: 11 сентября 2005

IMDB 6.50 (66 971)


В ролях: Джейсон Стэйтем, Рэй Лиотта, Винсент Пасторе, Андре Бенджамин, Теренс Мэйнард, Эндрю Ховард, Марк Стронг, Франческа Аннис, Мем Ферда, Анжела Лорен Смит,

Роли дублировали: Александр Рахленко, Юрий Деркач, Андрей Ярославцев, Вячеслав Баранов, Олег Куценко

Описание: Семь лет назад Джек влип в неприятную историю. По всему городу шли нелегальные азартные игры — игры без правил, полные опасности, но приносящие хороший доход. Организовывал и присматривал за этими играми преступный босс Мака и его люди. Накануне одной «большой игры», Мака потерял своего парня, и его люди, узнав о Джеке Грине, решили, что он сможет подойти на замену. Грин, выслушав предложение ребят Маки, отказался, но ребята не отступили и стали давить на брата Джека и на его семью. Грин был вынужден сесть за карточный стол, чтобы брата с семьёй оставили в покое. Игру он выиграл. И с этого все началось...

Качество: BDRip 720p
Формат: MKV
Видео кодек: H.264
Аудио кодек: AC3
Видео: x264, 1280 x 544 (2,35:1), 5134 kbps, 60,000 fps, ( 0.123 bpp)
Аудио#1: AC-3, 48.0 KHz, 6 ch, 384 Kbps ( Dub )

скриншот   скриншот   скриншот   скриншот   скриншот   скриншот  

x264 [info]: frame I:2859 Avg QP:11.31 size: 86144
x264 [info]: frame P:117147 Avg QP:13.67 size: 25731
x264 [info]: frame B:280472 Avg QP:17.37 size: 3648
x264 [info]: consecutive B-frames: 6.6% 7.0% 14.7% 12.6% 59.1%


Общее
Уникальный идентификатор : 179105352118994373111363330585782313332 (0x86BE6FA33D837A93915CB8912B12E174)
Полное имя : E:\Jason Statham\Revolver.(2005).BDRip.720p.(60 Fps).mkv
Формат : Matroska
Версия формата : Version 4 / Version 2
Размер файла : 4,29 Гбайт
Продолжительность : 1 ч. 51 м.
Общий поток : 5522 Кбит/сек
Название фильма : Револьвер / Revolver (2005) BDRip 720p от R.G. HD-Films | 60 fps
Дата кодирования : UTC 2015-06-05 09:15:55
Программа кодирования : mkvmerge v6.2.0 ('Promised Land') built on Apr 28 2013 12:22:01
Библиотека кодирования : libebml v1.3.0 + libmatroska v1.4.0

Видео
Идентификатор : 1
Формат : AVC
Формат/Информация : Advanced Video Codec
Профиль формата : High@L4.1
Параметр CABAC формата : Да
Параметр ReFrames формата : 4 кадра
Идентификатор кодека : V_MPEG4/ISO/AVC
Продолжительность : 1 ч. 51 м.
Битрейт : 5134 Кбит/сек
Ширина : 1280 пикселей
Высота : 544 пикселя
Соотношение сторон : 2,35:1
Режим частоты кадров : Постоянный
Частота кадров : 60,000 кадров/сек
Цветовое пространство : YUV
Субдискретизация насыщенности : 4:2:0
Битовая глубина : 8 бит
Тип развёртки : Прогрессивная
Бит/(Пиксели*Кадры) : 0.123
Размер потока : 3,91 Гбайт (91%)
Заголовок : Revolver (2005) BDRip 720p (60 Fps).mkv
Библиотека кодирования : x264 core 130 r2273 b3065e6
Настройки программы : cabac=1 / ref=4 / deblock=1:-3:-3 / analyse=0x3:0x113 / me=umh / subme=8 / psy=1 / psy_rd=1.00:0.00 / mixed_ref=1 / me_range=24 / chroma_me=1 / trellis=2 / 8x8dct=1 / cqm=0 / deadzone=21,11 / fast_pskip=1 / chroma_qp_offset=-2 / threads=12 / lookahead_threads=3 / sliced_threads=0 / nr=0 / decimate=1 / interlaced=0 / bluray_compat=0 / constrained_intra=0 / bframes=4 / b_pyramid=2 / b_adapt=2 / b_bias=0 / direct=3 / weightb=1 / open_gop=0 / weightp=2 / keyint=250 / keyint_min=25 / scenecut=40 / intra_refresh=0 / rc_lookahead=40 / rc=2pass / mbtree=1 / bitrate=5134 / ratetol=1.0 / qcomp=0.60 / qpmin=0 / qpmax=69 / qpstep=4 / cplxblur=20.0 / qblur=0.5 / ip_ratio=1.40 / aq=1:1.00
Язык : English
Default : Да
Forced : Нет

Аудио
Идентификатор : 2
Формат : AC-3
Формат/Информация : Audio Coding 3
Расширение режима : CM (complete main)
Параметр Endianness формата : Big
Идентификатор кодека : A_AC3
Продолжительность : 1 ч. 51 м.
Вид битрейта : Постоянный
Битрейт : 384 Кбит/сек
Каналы : 6 каналов
Расположение каналов : Front: L C R, Side: L R, LFE
Частота : 48,0 КГц
Битовая глубина : 16 бит
Метод сжатия : С потерями
Размер потока : 306 Мбайт (7%)
Заголовок : Dub
Язык : Russian
Default : Да
Forced : Нет

Текст
Идентификатор : 3
Формат : UTF-8
Идентификатор кодека : S_TEXT/UTF8
Идентификатор кодека/Информация : UTF-8 Plain Text
Заголовок : Full
Язык : Russian
Default : Нет
Forced : Нет

Хаос / Chaos
Год выпуска: 2005
Страна: Канада, Великобритания, США
Жанр: боевик, триллер, драма, криминал
Продолжительность: 01:46:50
Перевод: Дубляж
Субтитры: Русские (полные)

Режиссер: Тони Гиглио
Продюссер: Хув Пенальт Джонс, Гэвин Уидлинг, Дэвид Бергштейн
Сценарий: Тони Гиглио

Бюджет: $20 000 000
Премьера в мире: 15 декабря 2005

IMDB 6.50 (40 042)


В ролях: Джейсон Стэйтем, Райан Филипп, Джастин Уоддэлл, Уэсли Снайпс, Генри Черни, Николас Ли, Джон Кассини, Киган Коннор Трейси, Дэймон Джонсон, Пол Перри,

Роли дублировали: Леонид Белозорович, Михаил Тихонов, Ольга Плетнёва, Виктор Бохон, Владимир Антоник

Описание: Самым обычным утром банда грабителей захватывает банк и берет в заложники всех, кто в нем находится. Полиция окружает здание банка. Вожак банды Лоренц требует вызвать переговорщика, настаивая на том, что им может быть только детектив Коннерс. А так как Коннерс числится в полиции «на плохом счету», к нему приставляют напарника — новичка Деккера.Пока Коннерс ведет переговоры, в банк врывается полицейский спецназ. В начавшемся хаосе грабителям удается смешаться с заложниками и выскользнуть из банка. Но самым странным оказалось то, что грабители не унесли с собой ни единого цента. А вскоре выясняется, что во время осады и перестрелки с банковских счетов компьютерным способом был снят миллиард долларов. Распутывая это дело, Коннерс и Деккер нащупывают нити заговора, ведущие на самый «верх»...


Качество: BDRip 720p
Формат: MKV
Видео кодек: H.264
Аудио кодек: AC3
Видео: x264, 1280 x 544 (2,35:1), 4374 kbps, 60,000 fps, ( 0.105 bpp)
Аудио#1: AC-3, 48.0 KHz, 6 ch, 384 Kbps ( Dub )

скриншот   скриншот   скриншот   скриншот   скриншот   скриншот  

x264 [info]: frame I:2409 Avg QP:13.58 size: 79578
x264 [info]: frame P:93481 Avg QP:16.86 size: 22095
x264 [info]: frame B:286736 Avg QP:20.37 size: 4546
x264 [info]: consecutive B-frames: 2.3% 2.2% 11.5% 21.1% 62.9%


Общее
Уникальный идентификатор : 229859768282421021871654150120838739843 (0xACED618E193E05DDA32CA90ACBBB3783)
Полное имя : E:\Jason Statham\Haos.(2005).BDRip.720p.(60 Fps).mkv
Формат : Matroska
Версия формата : Version 4 / Version 2
Размер файла : 3,60 Гбайт
Продолжительность : 1 ч. 46 м.
Общий поток : 4855 Кбит/сек
Название фильма : Хаос / Chaos (2005) BDRip 720p от R.G. HD-Films | 60 fps
Дата кодирования : UTC 2015-06-06 10:15:03
Программа кодирования : mkvmerge v6.2.0 ('Promised Land') built on Apr 28 2013 12:22:01
Библиотека кодирования : libebml v1.3.0 + libmatroska v1.4.0

Видео
Идентификатор : 1
Формат : AVC
Формат/Информация : Advanced Video Codec
Профиль формата : High@L4.1
Параметр CABAC формата : Да
Параметр ReFrames формата : 4 кадра
Идентификатор кодека : V_MPEG4/ISO/AVC
Продолжительность : 1 ч. 46 м.
Битрейт : 4374 Кбит/сек
Ширина : 1280 пикселей
Высота : 544 пикселя
Соотношение сторон : 2,35:1
Режим частоты кадров : Постоянный
Частота кадров : 60,000 кадров/сек
Цветовое пространство : YUV
Субдискретизация насыщенности : 4:2:0
Битовая глубина : 8 бит
Тип развёртки : Прогрессивная
Бит/(Пиксели*Кадры) : 0.105
Размер потока : 3,25 Гбайт (90%)
Заголовок : Chaos (2005) BDRip 720p (60 Fps).mkv
Библиотека кодирования : x264 core 130 r2273 b3065e6
Настройки программы : cabac=1 / ref=4 / deblock=1:-1:-1 / analyse=0x3:0x113 / me=umh / subme=8 / psy=1 / psy_rd=1.00:0.00 / mixed_ref=1 / me_range=24 / chroma_me=1 / trellis=2 / 8x8dct=1 / cqm=0 / deadzone=21,11 / fast_pskip=1 / chroma_qp_offset=-2 / threads=3 / lookahead_threads=1 / sliced_threads=0 / nr=0 / decimate=1 / interlaced=0 / bluray_compat=0 / constrained_intra=0 / bframes=4 / b_pyramid=2 / b_adapt=2 / b_bias=0 / direct=1 / weightb=1 / open_gop=0 / weightp=2 / keyint=250 / keyint_min=25 / scenecut=40 / intra_refresh=0 / rc_lookahead=40 / rc=crf / mbtree=1 / crf=15.0 / qcomp=0.60 / qpmin=0 / qpmax=69 / qpstep=4 / ip_ratio=1.40 / aq=1:1.00
Язык : English
Default : Да
Forced : Нет

Аудио
Идентификатор : 2
Формат : AC-3
Формат/Информация : Audio Coding 3
Расширение режима : CM (complete main)
Параметр Endianness формата : Big
Идентификатор кодека : A_AC3
Продолжительность : 1 ч. 46 м.
Вид битрейта : Постоянный
Битрейт : 384 Кбит/сек
Каналы : 6 каналов
Расположение каналов : Front: L C R, Side: L R, LFE
Частота : 48,0 КГц
Битовая глубина : 16 бит
Метод сжатия : С потерями
Размер потока : 292 Мбайт (8%)
Заголовок : Dub
Язык : Russian
Default : Да
Forced : Нет

Текст
Идентификатор : 3
Формат : UTF-8
Идентификатор кодека : S_TEXT/UTF8
Идентификатор кодека/Информация : UTF-8 Plain Text
Заголовок : Full
Язык : Russian
Default : Нет
Forced : Нет

Война / War
Год выпуска: 2007
Страна: США, Канада
Жанр: боевик, триллер, криминал
Продолжительность: 01:42:53
Перевод: Дубляж
Субтитры: Rus, Ukr - Полные

Режиссер: Филлип Дж. Этвелл
Продюссер: Кристофер Петцель, Джим Томпсон, Питер Блок
Сценарий: Ли Энтони Смит, Грегори Дж. Брэдли

Бюджет: $25 000 000
Премьера в мире: 24 августа 2007

IMDB 6.30 (66 661)


В ролях: Джет Ли, Джейсон Стэйтем, Джон Лоун, Девон Аоки, Луис Гусман, Сол Рубинек, Рё Исибаси, Санг Кенг, Мэтью Ст. Патрик, Надин Веласкес,

Роли дублировали: Пётр Иващенко, Александр Рахленко, Андрей Градов, Юрий Маляров, Ольга Зверева

Описание: После того как агент ФБР Том Лоун и его семья убиты известным неуловимым убийцей по кличке Роуг, напарник Лоуна, агент Джон Кроуфорд становится одержимым местью, и его мир превращается в водоворот вины и предательства. Роуг в конце концов возвращается в город, чтобы отомстить за себя, и начинает кровавую преступную войну между враждующими бандитами Чаном из триад и боссом якудзы Сиро.


Качество: BDRip 720p
Формат: MKV
Видео кодек: H.264
Аудио кодек: AC3
Видео: x264, 1280 x 536 (2,40:1), 4734 kbps, 60,000 fps, ( 0.115 bpp)
Аудио#1: AC-3, 48.0 KHz, 6 ch, 384 Kbps ( Dub )
Навигация по главам: есть

скриншот   скриншот   скриншот   скриншот   скриншот   скриншот  

x264 [info]: frame I:3144 Avg QP:15.25 size: 99101
x264 [info]: frame P:103661 Avg QP:18.24 size: 22051
x264 [info]: frame B:263621 Avg QP:21.75 size: 4298
x264 [info]: consecutive B-frames: 4.2% 6.2% 18.3% 22.8% 48.5%


Общее
Уникальный идентификатор : 227741918714317866824290119730006726596 (0xAB557F8275BF4A3EB931C13C498217C4)
Полное имя : E:\Jason Statham\War.(2007).BDRip.720p.(60 Fps).mkv
Формат : Matroska
Версия формата : Version 4 / Version 2
Размер файла : 3,75 Гбайт
Продолжительность : 1 ч. 42 м.
Общий поток : 5222 Кбит/сек
Название фильма : Война / War (2007) BDRip 720p от R.G. HD-Films | 60 fps
Дата кодирования : UTC 2015-06-05 09:26:00
Программа кодирования : mkvmerge v6.2.0 ('Promised Land') built on Apr 28 2013 12:22:01
Библиотека кодирования : libebml v1.3.0 + libmatroska v1.4.0

Видео
Идентификатор : 1
Формат : AVC
Формат/Информация : Advanced Video Codec
Профиль формата : High@L4.1
Параметр CABAC формата : Да
Параметр ReFrames формата : 4 кадра
Идентификатор кодека : V_MPEG4/ISO/AVC
Продолжительность : 1 ч. 42 м.
Битрейт : 4734 Кбит/сек
Ширина : 1280 пикселей
Высота : 536 пикселей
Соотношение сторон : 2,40:1
Режим частоты кадров : Постоянный
Частота кадров : 60,000 кадров/сек
Цветовое пространство : YUV
Субдискретизация насыщенности : 4:2:0
Битовая глубина : 8 бит
Тип развёртки : Прогрессивная
Бит/(Пиксели*Кадры) : 0.115
Размер потока : 3,40 Гбайт (91%)
Заголовок : War (2007) BDRip 720p (60 Fps).mkv
Библиотека кодирования : x264 core 130 r2273 b3065e6
Настройки программы : cabac=1 / ref=4 / deblock=1:-3:-3 / analyse=0x3:0x113 / me=umh / subme=8 / psy=1 / psy_rd=1.00:0.00 / mixed_ref=1 / me_range=24 / chroma_me=1 / trellis=2 / 8x8dct=1 / cqm=0 / deadzone=21,11 / fast_pskip=1 / chroma_qp_offset=-2 / threads=8 / lookahead_threads=2 / sliced_threads=0 / nr=0 / decimate=1 / interlaced=0 / bluray_compat=0 / constrained_intra=0 / bframes=4 / b_pyramid=2 / b_adapt=2 / b_bias=0 / direct=1 / weightb=1 / open_gop=0 / weightp=2 / keyint=250 / keyint_min=25 / scenecut=40 / intra_refresh=0 / rc_lookahead=40 / rc=crf / mbtree=1 / crf=16.0 / qcomp=0.60 / qpmin=0 / qpmax=69 / qpstep=4 / ip_ratio=1.40 / aq=1:1.00
Язык : English
Default : Да
Forced : Нет

Аудио
Идентификатор : 2
Формат : AC-3
Формат/Информация : Audio Coding 3
Расширение режима : CM (complete main)
Параметр Endianness формата : Big
Идентификатор кодека : A_AC3
Продолжительность : 1 ч. 42 м.
Вид битрейта : Постоянный
Битрейт : 384 Кбит/сек
Каналы : 6 каналов
Расположение каналов : Front: L C R, Side: L R, LFE
Частота : 48,0 КГц
Битовая глубина : 16 бит
Метод сжатия : С потерями
Размер потока : 283 Мбайт (7%)
Заголовок : Dub
Язык : Russian
Default : Да
Forced : Нет

Текст #1
Идентификатор : 3
Формат : UTF-8
Идентификатор кодека : S_TEXT/UTF8
Идентификатор кодека/Информация : UTF-8 Plain Text
Заголовок : Full
Язык : Russian
Default : Нет
Forced : Нет

Текст #2
Идентификатор : 4
Формат : UTF-8
Идентификатор кодека : S_TEXT/UTF8
Идентификатор кодека/Информация : UTF-8 Plain Text
Заголовок : Full
Язык : Ukrainian
Default : Нет
Forced : Нет

Меню
00:00:00.000 : en:00:00:00.000
00:05:16.383 : en:00:05:16.383
00:10:19.252 : en:00:10:19.252
00:18:33.713 : en:00:18:33.713
00:26:08.000 : en:00:26:08.000
00:34:27.599 : en:00:34:27.599
00:39:49.721 : en:00:39:49.721
00:47:43.661 : en:00:47:43.661
00:51:51.208 : en:00:51:51.208
00:58:08.985 : en:00:58:08.985
01:06:43.099 : en:01:06:43.099
01:11:18.174 : en:01:11:18.174
01:18:36.478 : en:01:18:36.478
01:22:21.570 : en:01:22:21.570
01:29:17.118 : en:01:29:17.118
01:37:30.745 : en:01:37:30.745

Ограбление на Бейкер-Стрит / The Bank Job
Год выпуска: 2008
Страна: Великобритания, США
Жанр: триллер, драма, криминал
Продолжительность: 01:51:39
Перевод: Профессиональный многоголосый закадровый [С.Р.И.]
Субтитры: Russian (форсированые + полные)

Режиссер: Роджер Дональдсон
Продюссер: Чарльз Ровен, Дэвид Элпер, Маири Бетт
Сценарий: Дик Клемент, Йен Ла Френас

Бюджет: $40 000 000
Премьера в мире: 19 февраля 2008

IMDB 7.30 (141 668)


В ролях: Джейсон Стэйтем, Саффрон Берроуз, Стивен Кэмпбелл Мур, Дэниэл Мейс, Джеймс Фолкнер, Алки Дэвид, Майкл Джибсон, Джорджия Тейлор, Ричард Линтерн, Питер Боулз,

Описание: Фильм основан на реальных событиях, происходивших в Великобритании в 1971 году. После 35 лет забвения мы наконец узнаем об одном из самых легендарных ограблений банка в истории Великобритании, когда не было произведено ни одного ареста и не было найдено ни малейшего следа похищенных денег.Налёт на банк на Бейкер Стрит был инициирован высокопоставленными официальными лицами, пытающимися добраться до заветной банковской ячейки, в которой хозяйка одного из известнейших борделей Лондона хранила секретную информацию. Теперь запрет на разглашение информации об этом ограблении снят британским правительством, и перед нами открывается красочная, лихо закрученная история, полная тайн, сюрпризов и неожиданных поворотов.

Качество: BDRip 720p
Формат: MKV
Видео кодек: H.264
Аудио кодек: AC3
Видео: x264, 1280 x 720 (16:9), 5856 kbps, 60,000 fps, ( 0.106 bpp)
Аудио#1: 48.0 kHz, AC3, 6ch, 384 kbps ( MVO [С.Р.И.] )



скриншот   скриншот   скриншот   скриншот   скриншот   скриншот  Автор рипа: slaventi-69
x264 [info]: frame I:2550 Avg QP:14.67 size:121895
x264 [info]: frame P:99534 Avg QP:17.35 size: 29032
x264 [info]: frame B:299879 Avg QP:20.93 size: 5675
x264 [info]: consecutive B-frames: 1.9% 3.3% 14.8% 18.2% 61.8%


Общее
Уникальный идентификатор : 170877808914339219376851012186478484223 (0x808DDE705B8A5412BA520C92F3541AFF)
Полное имя : E:\The.Bank.Job.(2008).BDRip.720p(60Fps).mkv
Формат : Matroska
Версия формата : Version 4 / Version 2
Размер файла : 4,87 Гбайт
Продолжительность : 1 ч. 51 м.
Общий поток : 6242 Кбит/сек
Название фильма : Ограбление на Бейкер-Стрит / The Bank Job (2008) BDRip 720p (60 Fps)
Дата кодирования : UTC 2015-05-28 10:14:34
Программа кодирования : mkvmerge v6.2.0 ('Promised Land') built on Apr 28 2013 12:22:01
Библиотека кодирования : libebml v1.3.0 + libmatroska v1.4.0

Видео
Идентификатор : 1
Формат : AVC
Формат/Информация : Advanced Video Codec
Профиль формата : High@L4.1
Параметр CABAC формата : Да
Параметр ReFrames формата : 4 кадра
Идентификатор кодека : V_MPEG4/ISO/AVC
Продолжительность : 1 ч. 51 м.
Битрейт : 5856 Кбит/сек
Ширина : 1280 пикселей
Высота : 720 пикселей
Соотношение сторон : 16:9
Режим частоты кадров : Постоянный
Частота кадров : 60,000 кадров/сек
Цветовое пространство : YUV
Субдискретизация насыщенности : 4:2:0
Битовая глубина : 8 бит
Тип развёртки : Прогрессивная
Бит/(Пиксели*Кадры) : 0.106
Размер потока : 4,47 Гбайт (92%)
Заголовок : The Bank Job (2008) BDRip 720p (60 Fps).mkv
Библиотека кодирования : x264 core 130 r2273 b3065e6
Настройки программы : cabac=1 / ref=4 / deblock=1:-3:-3 / analyse=0x3:0x113 / me=umh / subme=8 / psy=1 / psy_rd=1.00:0.00 / mixed_ref=1 / me_range=24 / chroma_me=1 / trellis=2 / 8x8dct=1 / cqm=0 / deadzone=21,11 / fast_pskip=1 / chroma_qp_offset=-2 / threads=3 / lookahead_threads=1 / sliced_threads=0 / nr=0 / decimate=1 / interlaced=0 / bluray_compat=0 / constrained_intra=0 / bframes=4 / b_pyramid=2 / b_adapt=2 / b_bias=0 / direct=3 / weightb=1 / open_gop=0 / weightp=2 / keyint=250 / keyint_min=25 / scenecut=40 / intra_refresh=0 / rc_lookahead=50 / rc=2pass / mbtree=1 / bitrate=5856 / ratetol=1.0 / qcomp=0.60 / qpmin=0 / qpmax=69 / qpstep=4 / cplxblur=20.0 / qblur=0.5 / ip_ratio=1.40 / aq=1:1.00
Язык : English
Default : Да
Forced : Нет

Аудио
Идентификатор : 2
Формат : AC-3
Формат/Информация : Audio Coding 3
Расширение режима : CM (complete main)
Параметр Endianness формата : Big
Идентификатор кодека : A_AC3
Продолжительность : 1 ч. 51 м.
Вид битрейта : Постоянный
Битрейт : 384 Кбит/сек
Каналы : 6 каналов
Расположение каналов : Front: L C R, Side: L R, LFE
Частота : 48,0 КГц
Битовая глубина : 16 бит
Метод сжатия : С потерями
Размер потока : 307 Мбайт (6%)
Заголовок : MVO [С.Р.И.]
Язык : Russian
Default : Да
Forced : Нет

Текст #1
Идентификатор : 3
Формат : UTF-8
Идентификатор кодека : S_TEXT/UTF8
Идентификатор кодека/Информация : UTF-8 Plain Text
Заголовок : Forced
Язык : Russian
Default : Нет
Forced : Нет

Текст #2
Идентификатор : 4
Формат : UTF-8
Идентификатор кодека : S_TEXT/UTF8
Идентификатор кодека/Информация : UTF-8 Plain Text
Заголовок : Full
Язык : Russian
Default : Нет
Forced : Нет

Меню
00:00:00.000 : :Chapter 01
00:10:56.000 : :Chapter 02
00:18:59.000 : :Chapter 03
00:24:23.000 : :Chapter 04
00:36:19.000 : :Chapter 05
00:45:43.000 : :Chapter 06
00:54:06.000 : :Chapter 07
00:59:48.000 : :Chapter 08
01:05:47.000 : :Chapter 09
01:15:15.000 : :Chapter 10
01:30:43.000 : :Chapter 11
01:45:23.500 : :Chapter 12

13 / 13
Год выпуска: 2009
Страна: США
Жанр: триллер, драма
Продолжительность: 01:37:15
Перевод: Дубляж
Субтитры: Русские (полные)

Режиссер: Гела Баблуани
Продюссер: Джанетт Бюрлинг, Валерио Морабито, Рик Шварц
Сценарий: Гела Баблуани, Грег Прусс

Бюджет: $2 566 907
Премьера в мире: 13 марта 2010

IMDB 6.10 (31 945)


В ролях: Сэм Райли, Джейсон Стэйтем, Рэй Уинстон, Микки Рурк, Майкл Шеннон, Александр Скарсгард, Фифти Сент, Дэвид Зайас, Эммануэль Шрики, Бен Газзара,

Роли дублировали: Дмитрий Курта, Владимир Зайцев, Борис Быстров, Михаил Георгиу, Юрий Деркач

Описание: Молодой парень по имени Винс случайно узнает быстрый способ разбогатеть. И, сам того не подозревая, ввязывается в смертельно опасную игру — русскую рулетку. Подпольный тотализатор, мир власти, денег и насилия, где люди убивают людей. В этой игре Винсу выпадает «счастливый» тринадцатый номер. Курок его револьвера уже взведен. С каждым выстрелом все меньше шансов выжить, и все больше хочется жить... Но даже если убьешь ты, это еще не значит, что ты останешься жив.

Качество: BDRip 720p
Формат: MKV
Видео кодек: H.264
Аудио кодек: AC3
Видео: x264, 1280 x 544 (2,35:1), 5235 kbps, 59,940 fps, ( 0.126 bpp)
Аудио#1: AC-3, 48.0 KHz, 6 ch, 384 Kbps ( Dub )

скриншот   скриншот   скриншот   скриншот   скриншот   скриншот  

Общее
Уникальный идентификатор : 192460551375245300326482282248208790100 (0x90CA8DCC6F74DC438C5AA398FFCE3254)
Полное имя : E:\Jason Statham\13.(2010).BDRip.720p.(60 Fps).mkv
Формат : Matroska
Версия формата : Version 4 / Version 2
Размер файла : 3,82 Гбайт
Продолжительность : 1 ч. 37 м.
Общий поток : 5622 Кбит/сек
Название фильма : 13 / Тринадцать / 13 (2010) BDRip 720p от R.G. HD-Films | 60 fps
Дата кодирования : UTC 2015-06-09 06:57:29
Программа кодирования : mkvmerge v6.2.0 ('Promised Land') built on Apr 28 2013 12:22:01
Библиотека кодирования : libebml v1.3.0 + libmatroska v1.4.0

Видео
Идентификатор : 1
Формат : AVC
Формат/Информация : Advanced Video Codec
Профиль формата : High@L4.1
Параметр CABAC формата : Да
Параметр ReFrames формата : 4 кадра
Идентификатор кодека : V_MPEG4/ISO/AVC
Продолжительность : 1 ч. 37 м.
Битрейт : 5235 Кбит/сек
Ширина : 1280 пикселей
Высота : 544 пикселя
Соотношение сторон : 2,35:1
Режим частоты кадров : Постоянный
Частота кадров : 59,880 кадров/сек
Частота кадров в оригинале : 59,940 кадров/сек
Цветовое пространство : YUV
Субдискретизация насыщенности : 4:2:0
Битовая глубина : 8 бит
Тип развёртки : Прогрессивная
Бит/(Пиксели*Кадры) : 0.126
Размер потока : 3,48 Гбайт (91%)
Заголовок : 13 (2010) BDRip 720p (60 Fps).mkv
Библиотека кодирования : x264 core 130 r2273 b3065e6
Настройки программы : cabac=1 / ref=4 / deblock=1:0:0 / analyse=0x3:0x113 / me=umh / subme=9 / psy=1 / psy_rd=1.00:0.00 / mixed_ref=1 / me_range=24 / chroma_me=1 / trellis=2 / 8x8dct=1 / cqm=0 / deadzone=21,11 / fast_pskip=1 / chroma_qp_offset=-2 / threads=10 / lookahead_threads=1 / sliced_threads=0 / nr=0 / decimate=1 / interlaced=0 / bluray_compat=0 / constrained_intra=0 / bframes=4 / b_pyramid=2 / b_adapt=2 / b_bias=0 / direct=3 / weightb=1 / open_gop=0 / weightp=2 / keyint=250 / keyint_min=25 / scenecut=40 / intra_refresh=0 / rc_lookahead=40 / rc=2pass / mbtree=1 / bitrate=5235 / ratetol=1.0 / qcomp=0.60 / qpmin=0 / qpmax=69 / qpstep=4 / cplxblur=20.0 / qblur=0.5 / ip_ratio=1.40 / aq=1:1.00
Default : Да
Forced : Нет

Аудио
Идентификатор : 2
Формат : AC-3
Формат/Информация : Audio Coding 3
Расширение режима : CM (complete main)
Параметр Endianness формата : Big
Идентификатор кодека : A_AC3
Продолжительность : 1 ч. 37 м.
Вид битрейта : Постоянный
Битрейт : 384 Кбит/сек
Каналы : 6 каналов
Расположение каналов : Front: L C R, Side: L R, LFE
Частота : 48,0 КГц
Битовая глубина : 16 бит
Метод сжатия : С потерями
Размер потока : 267 Мбайт (7%)
Заголовок : Dub
Язык : Russian
Default : Да
Forced : Нет

Текст
Идентификатор : 3
Формат : UTF-8
Идентификатор кодека : S_TEXT/UTF8
Идентификатор кодека/Информация : UTF-8 Plain Text
Заголовок : Full
Язык : Russian
Default : Нет
Forced : Нет

Механик / The Mechanic
Год выпуска: 2010
Страна: США
Жанр: боевик, триллер, криминал
Продолжительность: 01:32:44
Перевод: Дубляж, Лицензия
Субтитры: Русские (полные)

Режиссер: Саймон Уэст
Продюссер: Рене Бессон, Дэвид Уинклер, Роберт Чартофф
Сценарий: Льюис Джон Карлино, Ричард Уэнк

Бюджет: $40 000 000
Премьера в мире: 21 января 2011

IMDB 6.60 (105 929)


В ролях: Джейсон Стэйтем, Бен Фостер, Тони Голдуин, Дональд Сазерленд, Джефф Чейз, Мини Анден, Джеймс Логан, Эдди Дж. Фернандез, Джошуа Бриджуотер, Джон МакКоннелл,

Роли дублировали: Владимир Зайцев, Александр Гаврилин, Василий Дахненко, Петр Тобилевич, Михаил Георгиу

Описание: Артур Бишоп — «Механик», высокопрофессиональный безукоризненный киллер, который всегда работает по правилам — «чисто» и без следов. Такая работа требует полного самообладания и беспристрастности, и в своём деле ему нет равных. Бишоп всегда работал один, но ему пришлось стать наставником молодого и отчаянного Стива. Методичный профессионал и импульсивный ученик теперь на пару «устраняют проблемы», но рано или поздно они сойдутся в смертельной схватке...

Качество видео: BDRip 720p / 60 Fps
Формат: mkv
Видео кодек: H.264
Аудио кодек: AC3
Видео: x264, 1280 x 536 (2,40:1), 4758 kbps, 59,940 fps, ( 0.116 bpp)
Аудио#1: 48.0 kHz, AC3, 6ch, 384 kbps ( Dub )



скриншот   скриншот   скриншот   скриншот   скриншот   скриншот  Автор рипа: slaventi-69

x264 [info]: frame I:2816 Avg QP:16.12 size: 89349
x264 [info]: frame P:97000 Avg QP:19.64 size: 22792
x264 [info]: frame B:233722 Avg QP:22.19 size: 3615
x264 [info]: consecutive B-frames: 6.7% 5.5% 10.7% 29.5% 47.6%


Общее
Уникальный идентификатор : 252684835468816172365325789578398543241 (0xBE195440B264601AB036294C890C2D89)
Полное имя : E:\Jason Statham\The.Mechanic.(2011).BDRip.720p(60Fps).mkv
Формат : Matroska
Версия формата : Version 4 / Version 2
Размер файла : 3,33 Гбайт
Продолжительность : 1 ч. 32 м.
Общий поток : 5143 Кбит/сек
Название фильма : Механик / The Mechanic (2011) BDRip 720p от R.G. HD-Films | 60 fps
Дата кодирования : UTC 2015-06-12 09:03:42
Программа кодирования : mkvmerge v6.2.0 ('Promised Land') built on Apr 28 2013 12:22:01
Библиотека кодирования : libebml v1.3.0 + libmatroska v1.4.0

Видео
Идентификатор : 1
Формат : AVC
Формат/Информация : Advanced Video Codec
Профиль формата : High@L4.1
Параметр CABAC формата : Да
Параметр ReFrames формата : 4 кадра
Идентификатор кодека : V_MPEG4/ISO/AVC
Продолжительность : 1 ч. 32 м.
Битрейт : 4758 Кбит/сек
Ширина : 1280 пикселей
Высота : 536 пикселей
Соотношение сторон : 2,40:1
Режим частоты кадров : Постоянный
Частота кадров : 59,880 кадров/сек
Частота кадров в оригинале : 59,940 кадров/сек
Цветовое пространство : YUV
Субдискретизация насыщенности : 4:2:0
Битовая глубина : 8 бит
Тип развёртки : Прогрессивная
Бит/(Пиксели*Кадры) : 0.116
Размер потока : 3,02 Гбайт (91%)
Заголовок : The Mechanic (2011) BDRip 720p (60 Fps).mkv
Библиотека кодирования : x264 core 130 r2273 b3065e6
Настройки программы : cabac=1 / ref=4 / deblock=1:-1:-1 / analyse=0x3:0x113 / me=umh / subme=8 / psy=1 / psy_rd=1.00:0.00 / mixed_ref=1 / me_range=24 / chroma_me=1 / trellis=2 / 8x8dct=1 / cqm=0 / deadzone=21,11 / fast_pskip=1 / chroma_qp_offset=-2 / threads=3 / lookahead_threads=1 / sliced_threads=0 / nr=0 / decimate=1 / interlaced=0 / bluray_compat=0 / constrained_intra=0 / bframes=4 / b_pyramid=2 / b_adapt=2 / b_bias=0 / direct=3 / weightb=1 / open_gop=0 / weightp=2 / keyint=250 / keyint_min=25 / scenecut=40 / intra_refresh=0 / rc_lookahead=50 / rc=2pass / mbtree=1 / bitrate=4758 / ratetol=1.0 / qcomp=0.60 / qpmin=0 / qpmax=69 / qpstep=4 / cplxblur=20.0 / qblur=0.5 / ip_ratio=1.40 / aq=1:1.00
Язык : English
Default : Да
Forced : Нет

Аудио
Идентификатор : 2
Формат : AC-3
Формат/Информация : Audio Coding 3
Расширение режима : CM (complete main)
Параметр Endianness формата : Big
Идентификатор кодека : A_AC3
Продолжительность : 1 ч. 32 м.
Вид битрейта : Постоянный
Битрейт : 384 Кбит/сек
Каналы : 6 каналов
Расположение каналов : Front: L C R, Side: L R, LFE
Частота : 48,0 КГц
Битовая глубина : 16 бит
Метод сжатия : С потерями
Размер потока : 255 Мбайт (7%)
Заголовок : Dub
Язык : Russian
Default : Да
Forced : Нет

Текст
Идентификатор : 3
Формат : UTF-8
Идентификатор кодека : S_TEXT/UTF8
Идентификатор кодека/Информация : UTF-8 Plain Text
Заголовок : Rus
Язык : Russian
Default : Нет
Forced : Нет

Меню
00:00:00.000 : en:Chapter 00
00:07:03.464 : en:Chapter 01
00:12:50.936 : en:Chapter 02
00:17:09.403 : en:Chapter 03
00:22:30.140 : en:Chapter 04
00:31:38.938 : en:Chapter 05
00:36:59.967 : en:Chapter 06
00:39:56.018 : en:Chapter 07
00:48:35.537 : en:Chapter 08
00:54:08.828 : en:Chapter 09
01:03:33.392 : en:Chapter 10
01:07:18.993 : en:Chapter 11
01:12:54.953 : en:Chapter 12
01:16:58.530 : en:Chapter 13
01:19:37.022 : en:Chapter 14
01:23:10.986 : en:Chapter 15

Без компромиссов / Blitz
Год выпуска: 2011
Страна: Великобритания
Жанр: триллер, криминал
Продолжительность: 01:37:38
Перевод: Дубляж, Лицензия

Режиссер: Эллиотт Лестер
Продюссер: Зиги Камаса, Дональд Кушнер, Брэд Уаймэн
Сценарий: Нэйтан Паркер, Кен Бруен

Бюджет: $2 553 892
Премьера в мире: 6 мая 2011

IMDB 6.20 (60 629)


В ролях: Джейсон Стэйтем, Пэдди Консидайн, Эйдан Гиллен, Зэйв Эштон, Дэвид Моррисси, Нед Деннехи, Марк Райлэнс, Люк Эванс, Никки Хенсон, Стивен Харвуд-Браун,

Роли дублировали: Владимир Зайцев, Андрей Казанцев, Евгений Вальц, Наталья Грачёва, Михаил Георгиу

Описание: Семь или восемь? Не в граммах, а в полицейских!.. Именно этим вопросом задается лондонский маньяк, решивший прославиться. Выбрав себе для первых полос таблоидов звучный псевдоним Блиц и вооружившись молотком, Барри Вайс выходит на улицы. И теперь главному герою придется спасать свою шкуру и пытаться остановить сумасшедшего убийцу...

Качество: BDRip 720p / 60 Fps
Формат: MKV
Видео кодек: H.264
Аудио кодек: AC3
Видео: x264, 1280 x 544 (2,35:1), 5128 kbps, 59,940 fps, ( 0.123 bpp)
Аудио#1: 48.0 kHz, AC3, 6ch, 384 kbps ( Dub )
Навигация по главам: есть


скриншот   скриншот   скриншот   скриншот   скриншот   скриншот  Автор рипа: slaventi-69
Общее
Уникальный идентификатор : 234502160098479670615307168879809537431 (0xB06B7924AA44941C8E0E2280D6162597)
Полное имя : E:\Jason Statham\Blitz.(2011).BDRip.720p.(60 Fps).mkv
Формат : Matroska
Версия формата : Version 4 / Version 2
Размер файла : 3,76 Гбайт
Продолжительность : 1 ч. 37 м.
Общий поток : 5510 Кбит/сек
Название фильма : Без компромиссов / Blitz (2011) BDRip 720p (60 Fps) от R.G. HD-Films | 60 fps
Дата кодирования : UTC 2015-06-12 08:30:30
Программа кодирования : mkvmerge v6.2.0 ('Promised Land') built on Apr 28 2013 12:22:01
Библиотека кодирования : libebml v1.3.0 + libmatroska v1.4.0

Видео
Идентификатор : 1
Формат : AVC
Формат/Информация : Advanced Video Codec
Профиль формата : High@L4.1
Параметр CABAC формата : Да
Параметр ReFrames формата : 4 кадра
Идентификатор кодека : V_MPEG4/ISO/AVC
Продолжительность : 1 ч. 37 м.
Битрейт : 5128 Кбит/сек
Ширина : 1280 пикселей
Высота : 544 пикселя
Соотношение сторон : 2,35:1
Режим частоты кадров : Постоянный
Частота кадров : 59,880 кадров/сек
Частота кадров в оригинале : 59,940 кадров/сек
Цветовое пространство : YUV
Субдискретизация насыщенности : 4:2:0
Битовая глубина : 8 бит
Тип развёртки : Прогрессивная
Бит/(Пиксели*Кадры) : 0.123
Размер потока : 3,42 Гбайт (91%)
Заголовок : Blitz (2011) BDRip 720p (60 Fps).mkv
Библиотека кодирования : x264 core 130 r2273 b3065e6
Настройки программы : cabac=1 / ref=4 / deblock=1:-2:-2 / analyse=0x3:0x113 / me=umh / subme=8 / psy=1 / psy_rd=1.00:0.10 / mixed_ref=1 / me_range=24 / chroma_me=1 / trellis=2 / 8x8dct=1 / cqm=0 / deadzone=21,11 / fast_pskip=1 / chroma_qp_offset=-3 / threads=3 / lookahead_threads=1 / sliced_threads=0 / nr=0 / decimate=1 / interlaced=0 / bluray_compat=0 / constrained_intra=0 / bframes=4 / b_pyramid=2 / b_adapt=2 / b_bias=0 / direct=3 / weightb=1 / open_gop=0 / weightp=2 / keyint=250 / keyint_min=25 / scenecut=40 / intra_refresh=0 / rc_lookahead=50 / rc=2pass / mbtree=1 / bitrate=5128 / ratetol=1.0 / qcomp=0.60 / qpmin=0 / qpmax=69 / qpstep=4 / cplxblur=20.0 / qblur=0.5 / ip_ratio=1.40 / aq=1:1.00
Язык : English
Default : Да
Forced : Нет

Аудио
Идентификатор : 2
Формат : AC-3
Формат/Информация : Audio Coding 3
Расширение режима : CM (complete main)
Параметр Endianness формата : Big
Идентификатор кодека : A_AC3
Продолжительность : 1 ч. 37 м.
Вид битрейта : Постоянный
Битрейт : 384 Кбит/сек
Каналы : 6 каналов
Расположение каналов : Front: L C R, Side: L R, LFE
Частота : 48,0 КГц
Битовая глубина : 16 бит
Метод сжатия : С потерями
Размер потока : 268 Мбайт (7%)
Заголовок : Dub
Язык : Russian
Default : Да
Forced : Нет

Меню
00:00:00.000 : en:Chapter 1
00:08:44.315 : en:Chapter 2
00:16:29.780 : en:Chapter 3
00:23:39.960 : en:Chapter 4
00:31:07.198 : en:Chapter 5
00:40:13.869 : en:Chapter 6
00:48:02.713 : en:Chapter 7
00:55:24.612 : en:Chapter 8
01:03:44.570 : en:Chapter 9
01:11:32.830 : en:Chapter 10
01:20:07.969 : en:Chapter 11
01:32:12.527 : en:Chapter 12

Профессионал / Killer Elite
Год выпуска: 2011
Страна: США
Жанр: боевик, триллер, криминал
Продолжительность: 01:56:42
Перевод: Дубляж, Лицензия
Субтитры: Russian ( полные )

Режиссер: Гэри МакКендри
Продюссер: Майкл Буген, Стив Чесман, Сигуржон Сигватссон
Сценарий: Мэтт Шерринг, Ранульф Файнс

Бюджет: $70 000 000
Премьера в мире: 10 сентября 2011

IMDB 6.50 (97 014)


В ролях: Джейсон Стэйтем, Клайв Оуэн, Роберт Де Ниро, Доминик Пёрселл, Аден Янг, Ивонн Страховски, Бен Мендельсон, Адевале Акинойе-Агбаже, Дэвид Уайтели, Мэтью Нэйбл,

Роли дублировали: Владимир Зайцев, Александр Груздев, Никита Прозоровский, Илья Исаев, Александр Гаврилин

Описание: Дэнни Брайс — бывший наемный убийца международного уровня. Но спустя год спокойной жизни он получает сообщение от посредника, из которого узнает, что его бывший напарник взят в заложники арабским шейхом. Теперь Дэнни обязан убить отставных бойцов элитного спецподразделения SAS, чтобы вызволить приятеля из темницы шейха.

Качество: BDRip 720p / 60 Fps
Формат: MKV
Видео кодек: H.264
Аудио кодек: AC3
Видео: x264, 1280 x 536 (2,40:1), 5156 kbps, 60,000 fps, ( 0.125 bpp)
Аудио#1: 48.0 kHz, AC3, 6ch, 384 kbps ( Dub )
Навигация по главам: есть



скриншот   скриншот   скриншот   скриншот   скриншот   скриншот  Автор рипа: slaventi-69
Общее
Уникальный идентификатор : 227613261376050943748474703671440620060 (0xAB3CB8368CFA36E995F76718F75ABA1C)
Полное имя : E:\Jason Statham\Killer.Elite.(2011).720p.(60 Fps).mkv
Формат : Matroska
Версия формата : Version 4 / Version 2
Размер файла : 4,51 Гбайт
Продолжительность : 1 ч. 56 м.
Общий поток : 5542 Кбит/сек
Название фильма : Профессионал / Killer Elite (2011) BDRip 720p от R.G. HD-Films | 60 fps
Дата кодирования : UTC 2015-06-12 08:40:17
Программа кодирования : mkvmerge v6.2.0 ('Promised Land') built on Apr 28 2013 12:22:01
Библиотека кодирования : libebml v1.3.0 + libmatroska v1.4.0

Видео
Идентификатор : 1
Формат : AVC
Формат/Информация : Advanced Video Codec
Профиль формата : High@L4.1
Параметр CABAC формата : Да
Параметр ReFrames формата : 4 кадра
Идентификатор кодека : V_MPEG4/ISO/AVC
Продолжительность : 1 ч. 56 м.
Битрейт : 5156 Кбит/сек
Ширина : 1280 пикселей
Высота : 536 пикселей
Соотношение сторон : 2,40:1
Режим частоты кадров : Постоянный
Частота кадров : 60,000 кадров/сек
Цветовое пространство : YUV
Субдискретизация насыщенности : 4:2:0
Битовая глубина : 8 бит
Тип развёртки : Прогрессивная
Бит/(Пиксели*Кадры) : 0.125
Размер потока : 4,11 Гбайт (91%)
Заголовок : Killer Elite (2011) BDRip 720p (60 Fps).mkv
Библиотека кодирования : x264 core 130 r2273 b3065e6
Настройки программы : cabac=1 / ref=4 / deblock=1:-3:-3 / analyse=0x3:0x113 / me=umh / subme=8 / psy=1 / psy_rd=1.00:0.00 / mixed_ref=1 / me_range=24 / chroma_me=1 / trellis=2 / 8x8dct=1 / cqm=0 / deadzone=21,11 / fast_pskip=1 / chroma_qp_offset=-2 / threads=12 / lookahead_threads=3 / sliced_threads=0 / nr=0 / decimate=1 / interlaced=0 / bluray_compat=0 / constrained_intra=0 / bframes=4 / b_pyramid=2 / b_adapt=2 / b_bias=0 / direct=3 / weightb=1 / open_gop=0 / weightp=2 / keyint=250 / keyint_min=25 / scenecut=40 / intra_refresh=0 / rc_lookahead=50 / rc=2pass / mbtree=1 / bitrate=5156 / ratetol=1.0 / qcomp=0.60 / qpmin=0 / qpmax=69 / qpstep=4 / cplxblur=20.0 / qblur=0.5 / ip_ratio=1.40 / aq=1:1.00
Язык : English
Default : Да
Forced : Нет

Аудио
Идентификатор : 2
Формат : AC-3
Формат/Информация : Audio Coding 3
Расширение режима : CM (complete main)
Параметр Endianness формата : Big
Идентификатор кодека : A_AC3
Продолжительность : 1 ч. 56 м.
Вид битрейта : Постоянный
Битрейт : 384 Кбит/сек
Каналы : 6 каналов
Расположение каналов : Front: L C R, Side: L R, LFE
Частота : 48,0 КГц
Битовая глубина : 16 бит
Метод сжатия : С потерями
Размер потока : 320 Мбайт (7%)
Заголовок : Dub
Язык : Russian
Default : Да
Forced : Нет

Текст
Идентификатор : 3
Формат : UTF-8
Идентификатор кодека : S_TEXT/UTF8
Идентификатор кодека/Информация : UTF-8 Plain Text
Язык : Russian
Default : Нет
Forced : Нет

Меню
00:00:00.000 : en:00:00:00.000
00:06:11.578 : en:00:06:11.578
00:12:40.384 : en:00:12:40.384
00:18:18.222 : en:00:18:18.222
00:24:33.388 : en:00:24:33.388
00:30:06.971 : en:00:30:06.971
00:36:41.324 : en:00:36:41.324
00:41:01.417 : en:00:41:01.417
00:46:36.293 : en:00:46:36.293
00:51:37.052 : en:00:51:37.052
00:57:32.532 : en:00:57:32.532
01:02:14.272 : en:01:02:14.272
01:07:04.895 : en:01:07:04.895
01:12:39.979 : en:01:12:39.979
01:20:23.652 : en:01:20:23.652
01:26:27.473 : en:01:26:27.473
01:32:30.628 : en:01:32:30.628
01:41:02.805 : en:01:41:02.805
01:46:07.277 : en:01:46:07.277
01:50:26.202 : en:01:50:26.202

Защитник / Safe
Год выпуска: 2012
Страна: США
Жанр: боевик, триллер, криминал
Продолжительность: 01:34:08
Перевод: Дубляж
Субтитры: Русские (полные)

Режиссер: Боаз Якин
Продюссер: Лоуренс Бендер, Дэна Брунетти, Стюарт Форд
Сценарий: Боаз Якин

Бюджет: $30 000 000
Премьера в мире: 2 марта 2012

IMDB 6.50 (73 308)


В ролях: Джейсон Стэйтем, Катрин Чан, Роберт Джон Бёрк, Регги Ли, Джеймс Хонг, Энсон Маунт, Крис Сарандон, Шандор Течи, Джозеф Сикора, Игорь Жижикин,

Роли дублировали: Владимир Зайцев, Маша Емельянова, Василий Дахненко, Диомид Виноградов, Сергей Смирнов

Описание: Бывший агент элитных спецслужб спасает девочку с уникальными способностями из цепких лап Нью-Йоркской мафии. Она — единственная, кто знает код от сейфа, где хранятся миллионы долларов китайских Триад. И теперь только профессионал может защитить ее от мафии, азиатских ассасинов и коррумпированных полицейских. На улицах Нью-Йорка развернется погоня за девочкой, которой очень повезло с Защитником...

Качество: BDRip 720p
Формат: MKV
Видео кодек: H.264
Аудио кодек: AC3
Видео: x264, 1280 x 544 (2,35:1), 4326 kbps, 60,000 fps, ( 0.104 bpp)
Аудио#1: AC-3, 48.0 KHz, 6 ch, 384 Kbps ( Dub )

скриншот   скриншот   скриншот   скриншот   скриншот   скриншот  

x264 [info]: frame I:2158 Avg QP:14.41 size: 73242
x264 [info]: frame P:85250 Avg QP:17.44 size: 20176
x264 [info]: frame B:251163 Avg QP:20.82 size: 4928
x264 [info]: consecutive B-frames: 2.3% 3.2% 15.4% 19.8% 59.3%


Общее
Уникальный идентификатор : 185706741028827772999548062858370928355 (0x8BB5D13D569C3BEEBAE9D1896084CEE3)
Полное имя : E:\Jason Statham\Safe.(2012).BDRip.720p.(60 Fps).mkv
Формат : Matroska
Версия формата : Version 4 / Version 2
Размер файла : 3,16 Гбайт
Продолжительность : 1 ч. 34 м.
Общий поток : 4805 Кбит/сек
Название фильма : Защитник / Safe (2012) BDRip 720p от R.G. HD-Films | 60 fps
Дата кодирования : UTC 2015-06-07 17:56:23
Программа кодирования : mkvmerge v6.2.0 ('Promised Land') built on Apr 28 2013 12:22:01
Библиотека кодирования : libebml v1.3.0 + libmatroska v1.4.0

Видео
Идентификатор : 1
Формат : AVC
Формат/Информация : Advanced Video Codec
Профиль формата : High@L4.1
Параметр CABAC формата : Да
Параметр ReFrames формата : 4 кадра
Идентификатор кодека : V_MPEG4/ISO/AVC
Продолжительность : 1 ч. 34 м.
Битрейт : 4326 Кбит/сек
Ширина : 1280 пикселей
Высота : 544 пикселя
Соотношение сторон : 2,35:1
Режим частоты кадров : Постоянный
Частота кадров : 60,000 кадров/сек
Цветовое пространство : YUV
Субдискретизация насыщенности : 4:2:0
Битовая глубина : 8 бит
Тип развёртки : Прогрессивная
Бит/(Пиксели*Кадры) : 0.104
Размер потока : 2,84 Гбайт (90%)
Заголовок : Safe (2012) BDRip 720p ( 60 Fps).mkv
Библиотека кодирования : x264 core 130 r2273 b3065e6
Настройки программы : cabac=1 / ref=4 / deblock=1:-1:-1 / analyse=0x3:0x113 / me=umh / subme=9 / psy=1 / psy_rd=1.00:0.00 / mixed_ref=1 / me_range=24 / chroma_me=1 / trellis=2 / 8x8dct=1 / cqm=0 / deadzone=21,11 / fast_pskip=1 / chroma_qp_offset=-2 / threads=3 / lookahead_threads=1 / sliced_threads=0 / nr=0 / decimate=1 / interlaced=0 / bluray_compat=0 / constrained_intra=0 / bframes=4 / b_pyramid=2 / b_adapt=2 / b_bias=0 / direct=1 / weightb=1 / open_gop=0 / weightp=2 / keyint=250 / keyint_min=25 / scenecut=40 / intra_refresh=0 / rc_lookahead=40 / rc=crf / mbtree=1 / crf=16.0 / qcomp=0.60 / qpmin=0 / qpmax=69 / qpstep=4 / ip_ratio=1.40 / aq=1:1.00
Язык : English
Default : Да
Forced : Нет

Аудио
Идентификатор : 2
Формат : AC-3
Формат/Информация : Audio Coding 3
Расширение режима : CM (complete main)
Параметр Endianness формата : Big
Идентификатор кодека : A_AC3
Продолжительность : 1 ч. 34 м.
Вид битрейта : Постоянный
Битрейт : 384 Кбит/сек
Каналы : 6 каналов
Расположение каналов : Front: L C R, Side: L R, LFE
Частота : 48,0 КГц
Битовая глубина : 16 бит
Метод сжатия : С потерями
Размер потока : 258 Мбайт (8%)
Заголовок : Dub
Язык : Russian
Default : Да
Forced : Нет

Текст #1
Идентификатор : 3
Формат : UTF-8
Идентификатор кодека : S_TEXT/UTF8
Идентификатор кодека/Информация : UTF-8 Plain Text
Заголовок : Dub.Voronine.srt
Язык : Russian
Default : Нет
Forced : Нет

Текст #2
Идентификатор : 4
Формат : UTF-8
Идентификатор кодека : S_TEXT/UTF8
Идентификатор кодека/Информация : UTF-8 Plain Text
Заголовок : SDH.Dub.Voronine.srt
Язык : Russian
Default : Нет
Forced : Нет

Паркер / Parker
Год выпуска: 2012
Страна: США
Жанр: боевик, триллер, криминал
Продолжительность: 01:58:40
Перевод: Дубляж, Лицензия
Субтитры: Russian (форсированые + полные)

Режиссер: Тейлор Хэкфорд
Продюссер: Лес Александр, Стив Чесман, Тейлор Хэкфорд
Сценарий: Джон Дж. МакЛафлин, Дональд Э. Уэстлейк

Бюджет: $35 000 000
Премьера в мире: 18 января 2013

IMDB 6.20 (77 948)


В ролях: Джейсон Стэйтем, Дженнифер Лопез, Майкл Чиклис, Ник Нолти, Эмма Бут, Мика Хауптман, Уенделл Пирс, Клифтон Коллинз мл., Дэниэл Бернхард, Бобби Каннавале,
Роли дублировали: Владимир Зайцев, Наталья Грачёва, Илья Исаев, Игорь Старосельцев, Рамиля Искандер

Описание: Главный герой — профессиональный вор, руководствующийся собственным моральным кодексом, но способный запросто отправить на тот свет любого, кто перейдет ему дорогу.

Качество: BDRip 720p
Формат: MKV
Видео кодек: H.264
Аудио кодек: AC3
Видео: x264, 1280 x 528 (2,40:1), 4756 kbps, 59,940 fps, ( 0.118 bpp)
Аудио#1: 48.0 kHz, AC3, 6ch, 384 kbps ( Dub )



скриншот   скриншот   скриншот   скриншот   скриншот   скриншот  Автор рипа: slaventi-69

x264 [info]: frame I:2726 Avg QP:14.26 size: 93871
x264 [info]: frame P:103859 Avg QP:16.97 size: 22968
x264 [info]: frame B:320196 Avg QP:21.01 size: 4961
x264 [info]: consecutive B-frames: 1.9% 3.6% 11.8% 15.9% 66.8%


Общее
Уникальный идентификатор : 184153315787458463068248685769417169922 (0x8A8AA37643C5089084A4AB0FDEBE1C02)
Полное имя : D:\Parker.2013.BDRip.720p.(60Fps).mkv
Формат : Matroska
Версия формата : Version 4 / Version 2
Размер файла : 4,26 Гбайт
Продолжительность : 1 ч. 58 м.
Общий поток : 5141 Кбит/сек
Название фильма : Паркер / Parker (2013) BDRip 720p (60Fps)
Дата кодирования : UTC 2015-05-27 11:09:18
Программа кодирования : mkvmerge v6.2.0 ('Promised Land') built on Apr 28 2013 12:22:01
Библиотека кодирования : libebml v1.3.0 + libmatroska v1.4.0

Видео
Идентификатор : 1
Формат : AVC
Формат/Информация : Advanced Video Codec
Профиль формата : High@L4.1
Параметр CABAC формата : Да
Параметр ReFrames формата : 4 кадра
Идентификатор кодека : V_MPEG4/ISO/AVC
Продолжительность : 1 ч. 58 м.
Битрейт : 4756 Кбит/сек
Ширина : 1280 пикселей
Высота : 528 пикселей
Соотношение сторон : 2,40:1
Режим частоты кадров : Постоянный
Частота кадров : 59,880 кадров/сек
Частота кадров в оригинале : 59,940 кадров/сек
Цветовое пространство : YUV
Субдискретизация насыщенности : 4:2:0
Битовая глубина : 8 бит
Тип развёртки : Прогрессивная
Бит/(Пиксели*Кадры) : 0.118
Размер потока : 3,86 Гбайт (91%)
Заголовок : Parker (2013) BDRip 720p (60Fps).mkv
Библиотека кодирования : x264 core 130 r2273 b3065e6
Настройки программы : cabac=1 / ref=4 / deblock=1:-3:-3 / analyse=0x3:0x113 / me=umh / subme=8 / psy=1 / psy_rd=1.00:0.00 / mixed_ref=1 / me_range=24 / chroma_me=1 / trellis=2 / 8x8dct=1 / cqm=0 / deadzone=21,11 / fast_pskip=1 / chroma_qp_offset=-2 / threads=3 / lookahead_threads=1 / sliced_threads=0 / nr=0 / decimate=1 / interlaced=0 / bluray_compat=0 / constrained_intra=0 / bframes=4 / b_pyramid=2 / b_adapt=2 / b_bias=0 / direct=3 / weightb=1 / open_gop=0 / weightp=2 / keyint=250 / keyint_min=25 / scenecut=40 / intra_refresh=0 / rc_lookahead=50 / rc=2pass / mbtree=1 / bitrate=4756 / ratetol=1.0 / qcomp=0.60 / qpmin=0 / qpmax=69 / qpstep=4 / cplxblur=20.0 / qblur=0.5 / ip_ratio=1.40 / aq=1:1.00
Язык : English
Default : Да
Forced : Нет

Аудио
Идентификатор : 2
Формат : AC-3
Формат/Информация : Audio Coding 3
Расширение режима : CM (complete main)
Параметр Endianness формата : Big
Идентификатор кодека : A_AC3
Продолжительность : 1 ч. 58 м.
Вид битрейта : Постоянный
Битрейт : 384 Кбит/сек
Каналы : 6 каналов
Расположение каналов : Front: L C R, Side: L R, LFE
Частота : 48,0 КГц
Битовая глубина : 16 бит
Метод сжатия : С потерями
Размер потока : 326 Мбайт (7%)
Заголовок : Dub
Язык : Russian
Default : Да
Forced : Нет

Текст #1
Идентификатор : 3
Формат : UTF-8
Идентификатор кодека : S_TEXT/UTF8
Идентификатор кодека/Информация : UTF-8 Plain Text
Заголовок : Rus (Forced)
Язык : Russian
Default : Нет
Forced : Нет

Текст #2
Идентификатор : 4
Формат : UTF-8
Идентификатор кодека : S_TEXT/UTF8
Идентификатор кодека/Информация : UTF-8 Plain Text
Заголовок : Rus
Язык : Russian
Default : Нет
Forced : Нет

Меню
00:00:00.000 : en:Chapter 01
00:06:14.707 : en:Chapter 02
00:14:00.923 : en:Chapter 03
00:19:29.585 : en:Chapter 04
00:26:25.000 : en:Chapter 05
00:31:46.487 : en:Chapter 06
00:38:26.804 : en:Chapter 07
00:42:27.920 : en:Chapter 08
00:49:46.274 : en:Chapter 09
00:55:07.637 : en:Chapter 10
01:01:11.376 : en:Chapter 11
01:06:21.560 : en:Chapter 12
01:11:51.348 : en:Chapter 13
01:22:34.532 : en:Chapter 14
01:30:46.274 : en:Chapter 15
01:38:12.219 : en:Chapter 16

Эффект колибри / Hummingbird
Год выпуска: 2012
Страна: США
Жанр: триллер, драма, криминал, боевик
Продолжительность: 01:40:22
Перевод: Дубляж
Субтитры: Русские (полные)

Режиссер: Стивен Найт
Продюссер: Гай Хили, Трэйси Ректор, Пол Уэбстер
Сценарий: Стивен Найт

Бюджет: $20 000 000
Премьера в мире: 15 апреля 2013

IMDB 6.20 (44 054)


В ролях: Джейсон Стэйтем, Агата Бузек, Бенедикт Вонг, Вики МакКлюр, Гер Райан, Юссеф Керкур, Энтони Моррис, Виктория Бьюик, Кристиан Брассингтон, Дэниэл Уэбб,

Роли дублировали: Александр Рахленко, Уршула Малка, Пётр Иващенко, Алексей Багдасаров, Алина Ольшанская

Описание: Бывший спецназовец Джоуи Джонс пытается начать новую жизнь. Он соглашается работать на азиатскую мафию. Но проникая все глубже в криминальный мир родного города, он понимает, что не может спокойно смотреть на творящееся в нем беззаконие. Когда от рук бандитов погибает его возлюбленная Изабель, Джоуи решает восстановить справедливость. Он начинает расследование, которое ведет его на самый верх преступного синдиката.


Качество: BDRip 720p
Формат: MKV
Видео кодек: H.264
Аудио кодек: AC3
Видео: x264, 1280 x 536 (2,40:1), 5181 kbps, 60,000 fps, ( 0.126 bpp)
Аудио#1: AC-3, 48.0 KHz, 6 ch, 384 Kbps ( Dub )
Навигация по главам: есть

скриншот   скриншот   скриншот   скриншот   скриншот   скриншот  

Общее
Уникальный идентификатор : 224480722907108288056653690203473315543 (0xA8E16A246F484E1B8A8F8120490E06D7)
Полное имя : E:\Jason Statham\Hummingbird.(2013).BDRip.720p.(60 Fps).mkv
Формат : Matroska
Версия формата : Version 4 / Version 2
Размер файла : 3,90 Гбайт
Продолжительность : 1 ч. 40 м.
Общий поток : 5564 Кбит/сек
Название фильма : Эффект колибри / Hummingbird / Redemption (2013) BDRip 720p от R.G. HD-Films | 60 fps
Дата кодирования : UTC 2015-06-10 06:19:38
Программа кодирования : mkvmerge v6.2.0 ('Promised Land') built on Apr 28 2013 12:22:01
Библиотека кодирования : libebml v1.3.0 + libmatroska v1.4.0

Видео
Идентификатор : 1
Формат : AVC
Формат/Информация : Advanced Video Codec
Профиль формата : High@L4.1
Параметр CABAC формата : Да
Параметр ReFrames формата : 4 кадра
Идентификатор кодека : V_MPEG4/ISO/AVC
Продолжительность : 1 ч. 40 м.
Битрейт : 5181 Кбит/сек
Ширина : 1280 пикселей
Высота : 536 пикселей
Соотношение сторон : 2,40:1
Режим частоты кадров : Постоянный
Частота кадров : 60,000 кадров/сек
Цветовое пространство : YUV
Субдискретизация насыщенности : 4:2:0
Битовая глубина : 8 бит
Тип развёртки : Прогрессивная
Бит/(Пиксели*Кадры) : 0.126
Размер потока : 3,55 Гбайт (91%)
Заголовок : Hummingbird / Redemption (2013) BDRip 720p (60 Fps).mkv
Библиотека кодирования : x264 core 130 r2273 b3065e6
Настройки программы : cabac=1 / ref=4 / deblock=1:0:0 / analyse=0x3:0x113 / me=umh / subme=9 / psy=1 / psy_rd=1.00:0.00 / mixed_ref=1 / me_range=26 / chroma_me=1 / trellis=2 / 8x8dct=1 / cqm=0 / deadzone=21,11 / fast_pskip=1 / chroma_qp_offset=-2 / threads=12 / lookahead_threads=1 / sliced_threads=0 / nr=0 / decimate=1 / interlaced=0 / bluray_compat=0 / constrained_intra=0 / bframes=4 / b_pyramid=2 / b_adapt=2 / b_bias=0 / direct=3 / weightb=1 / open_gop=0 / weightp=2 / keyint=250 / keyint_min=25 / scenecut=40 / intra_refresh=0 / rc_lookahead=40 / rc=2pass / mbtree=1 / bitrate=5181 / ratetol=1.0 / qcomp=0.60 / qpmin=0 / qpmax=69 / qpstep=4 / cplxblur=20.0 / qblur=0.5 / ip_ratio=1.40 / aq=1:1.00
Язык : English
Default : Да
Forced : Нет

Аудио
Идентификатор : 2
Формат : AC-3
Формат/Информация : Audio Coding 3
Расширение режима : CM (complete main)
Параметр Endianness формата : Big
Идентификатор кодека : A_AC3
Продолжительность : 1 ч. 40 м.
Вид битрейта : Постоянный
Битрейт : 384 Кбит/сек
Каналы : 6 каналов
Расположение каналов : Front: L C R, Side: L R, LFE
Частота : 48,0 КГц
Битовая глубина : 16 бит
Метод сжатия : С потерями
Размер потока : 275 Мбайт (7%)
Заголовок : Dub
Язык : Russian
Default : Да
Forced : Нет

Текст #1
Идентификатор : 3
Формат : UTF-8
Идентификатор кодека : S_TEXT/UTF8
Идентификатор кодека/Информация : UTF-8 Plain Text
Заголовок : V1
Язык : Russian
Default : Нет
Forced : Нет

Текст #2
Идентификатор : 4
Формат : UTF-8
Идентификатор кодека : S_TEXT/UTF8
Идентификатор кодека/Информация : UTF-8 Plain Text
Заголовок : V2
Язык : Russian
Default : Нет
Forced : Нет

Меню
00:00:00.000 : en:Chapter 1
00:04:45.660 : en:Chapter 2
00:08:44.816 : en:Chapter 3
00:12:39.717 : en:Chapter 4
00:19:44.934 : en:Chapter 5
00:24:50.030 : en:Chapter 6
00:28:37.466 : en:Chapter 7
00:38:17.837 : en:Chapter 8
00:47:03.946 : en:Chapter 9
00:51:06.105 : en:Chapter 10
01:00:36.842 : en:Chapter 11
01:06:56.971 : en:Chapter 12
01:13:20.229 : en:Chapter 13
01:19:51.286 : en:Chapter 14
01:24:40.450 : en:Chapter 15
01:33:38.154 : en:Chapter 16

Последний рубеж / Homefront
Год выпуска: 2013
Страна: США
Жанр: боевик, криминал
Продолжительность: 01:40:34
Перевод: Дубляж
Субтитры: Русские (полные)

Режиссер: Гэри Фледер
Продюссер: Сильвестр Сталлоне, Кевин Кинг Темплтон, Джон Томпсон
Сценарий: Сильвестр Сталлоне, Чак Логан

Бюджет: $22 000 000
Премьера в мире: 27 ноября 2013

IMDB 6.50 (70 056)


В ролях: Джейсон Стэйтем, Джеймс Франко, Изабела Видович, Вайнона Райдер, Кейт Босворт, Клэнси Браун, Рашель Лефевр, Омар Бенсон Миллер, Маркус Хестер, Фрэнк Грилло,

Роли дублировали: Владимир Зайцев, Вадим Медведев, Наталья Грачёва, Людмила Шувалова, Игорь Старосельцев

Описание: Фил Брокер — бывший агент из отдела борьбы с наркотиками. Фил переезжает в небольшой город вместе с семьей в надежде забыть прошлое. Но он узнает, что город только со стороны кажется тихим и спокойным местом, на самом деле он кишит насилием, наркотиками, а всем этим заправляет злодей по кличке Аллигатор...

Качество: BDRip 720p
Формат: MKV
Видео кодек: H.264
Аудио кодек: AC3
Видео: x264, 1280 x 536 (2,40:1), 4394 kbps, 59,940 fps, ( 0.107 bpp)
Аудио#1: AC-3, 48.0 KHz, 6 ch, 384 Kbps ( Dub )
Навигация по главам: есть

скриншот   скриншот   скриншот   скриншот   скриншот   скриншот  

x264 [info]: frame I:2556 Avg QP:15.15 size:103354
x264 [info]: frame P:91762 Avg QP:18.26 size: 21423
x264 [info]: frame B:267408 Avg QP:21.81 size: 4319
x264 [info]: consecutive B-frames: 3.0% 3.4% 12.8% 19.1% 61.7%


Общее
Уникальный идентификатор : 239536335749144614387778697725667159871 (0xB435052A703524B6AC0761E5C5B7AF3F)
Полное имя : E:\Jason Statham\Homefront.(2013).BDRip.720p.(60 Fps).mkv
Формат : Matroska
Версия формата : Version 4 / Version 2
Размер файла : 3,43 Гбайт
Продолжительность : 1 ч. 40 м.
Общий поток : 4875 Кбит/сек
Название фильма : Последний рубеж / Homefront (2013) BDRip 720p от R.G. HD-Films | 60 fps
Дата кодирования : UTC 2015-06-11 04:18:12
Программа кодирования : mkvmerge v6.2.0 ('Promised Land') built on Apr 28 2013 12:22:01
Библиотека кодирования : libebml v1.3.0 + libmatroska v1.4.0

Видео
Идентификатор : 1
Формат : AVC
Формат/Информация : Advanced Video Codec
Профиль формата : High@L4.1
Параметр CABAC формата : Да
Параметр ReFrames формата : 4 кадра
Идентификатор кодека : V_MPEG4/ISO/AVC
Продолжительность : 1 ч. 40 м.
Битрейт : 4394 Кбит/сек
Ширина : 1280 пикселей
Высота : 536 пикселей
Соотношение сторон : 2,40:1
Режим частоты кадров : Постоянный
Частота кадров : 59,880 кадров/сек
Частота кадров в оригинале : 59,940 кадров/сек
Цветовое пространство : YUV
Субдискретизация насыщенности : 4:2:0
Битовая глубина : 8 бит
Тип развёртки : Прогрессивная
Бит/(Пиксели*Кадры) : 0.107
Размер потока : 3,09 Гбайт (90%)
Заголовок : Homefront (2013) BDRip 720p (60 Fps).mkv
Библиотека кодирования : x264 core 130 r2273 b3065e6
Настройки программы : cabac=1 / ref=4 / deblock=1:0:0 / analyse=0x3:0x113 / me=umh / subme=8 / psy=1 / psy_rd=1.00:0.00 / mixed_ref=1 / me_range=24 / chroma_me=1 / trellis=2 / 8x8dct=1 / cqm=0 / deadzone=21,11 / fast_pskip=1 / chroma_qp_offset=-2 / threads=3 / lookahead_threads=1 / sliced_threads=0 / nr=0 / decimate=1 / interlaced=0 / bluray_compat=0 / constrained_intra=0 / bframes=4 / b_pyramid=2 / b_adapt=2 / b_bias=0 / direct=1 / weightb=1 / open_gop=0 / weightp=2 / keyint=250 / keyint_min=25 / scenecut=40 / intra_refresh=0 / rc_lookahead=40 / rc=crf / mbtree=1 / crf=16.0 / qcomp=0.60 / qpmin=0 / qpmax=69 / qpstep=4 / ip_ratio=1.40 / aq=1:1.00
Язык : English
Default : Да
Forced : Нет

Аудио
Идентификатор : 2
Формат : AC-3
Формат/Информация : Audio Coding 3
Расширение режима : CM (complete main)
Параметр Endianness формата : Big
Идентификатор кодека : A_AC3
Продолжительность : 1 ч. 40 м.
Вид битрейта : Постоянный
Битрейт : 384 Кбит/сек
Каналы : 6 каналов
Расположение каналов : Front: L C R, Side: L R, LFE
Частота : 48,0 КГц
Битовая глубина : 16 бит
Метод сжатия : С потерями
Размер потока : 276 Мбайт (8%)
Заголовок : AC3 5.1 @ 384 kbps - Dub,R5
Язык : Russian
Default : Да
Forced : Нет

Текст
Идентификатор : 3
Формат : UTF-8
Идентификатор кодека : S_TEXT/UTF8
Идентификатор кодека/Информация : UTF-8 Plain Text
Заголовок : Full
Язык : Russian
Default : Нет
Forced : Нет

Меню
00:00:00.000 : en:00:00:00.000
00:04:55.462 : en:00:04:55.462
00:09:14.095 : en:00:09:14.095
00:14:55.853 : en:00:14:55.853
00:21:42.426 : en:00:21:42.426
00:25:03.001 : en:00:25:03.001
00:31:23.215 : en:00:31:23.215
00:34:04.000 : en:00:34:04.000
00:39:01.089 : en:00:39:01.089
00:45:47.995 : en:00:45:47.995
00:49:29.258 : en:00:49:29.258
00:55:16.480 : en:00:55:16.480
01:01:55.420 : en:01:01:55.420
01:08:56.174 : en:01:08:56.174
01:12:27.635 : en:01:12:27.635
01:16:00.973 : en:01:16:00.973
01:19:15.250 : en:01:19:15.250
01:24:02.621 : en:01:24:02.621
01:29:39.124 : en:01:29:39.124
01:35:16.961 : en:01:35:16.961

Шальная карта / Wild Card
Год выпуска: 2014
Страна: США
Жанр: боевик, триллер, драма, криминал
Продолжительность: 01:32:20
Перевод: Любительский многоголосый
Субтитры: Русские (полные)

Режиссер: Саймон Уэст
Продюссер: Стив Чесман, Саманта Брукс, Роберт Эрл
Сценарий: Уильям Голдмен

Бюджет: $30 000 000
Премьера в мире: 14 января 2015

IMDB 5.60 (22 688)


В ролях: Джейсон Стэйтем, Майкл Ангарано, Майло Вентимилья, Доминик Гарсиа-Лоридо, Энн Хеч, София Вергара, Макс Казелла, Джейсон Александр, Хоуп Дэвис, Стэнли Туччи,

Роли дублировали: Владимир Зайцев, Александр Дасевич, Даниил Эльдаров, Евгения Ваган, Сергей Чихачев

Описание: Главный герой — бывший военный Ник Эскаланте — работает в Лас-Вегасе охранником, мечтает накопить денег и навсегда уехать на остров Корсика. Но Ник соглашается помочь проститутке Холли, постоянно подвергающейся насилию со стороны сына крупного гангстера, из-за чего его отъезд откладывается.

Качество: BDRip 720p
Формат: MKV
Видео кодек: H.264
Аудио кодек: AC3
Видео: x264, 1280 x 528 (2,40:1), 4984 kbps, 60,000 fps, ( 0.123 bpp)
Аудио#1: AC-3, 48.0 KHz, 6 ch, 384 Kbps ( Любительский (многоголосый, закадровый) - Paradox )
Навигация по главам: есть

скриншот   скриншот   скриншот   скриншот   скриншот   скриншот  

x264 [info]: frame I:2108 Avg QP:12.98 size:117775
x264 [info]: frame P:91952 Avg QP:15.15 size: 24466
x264 [info]: frame B:238041 Avg QP:18.55 size: 3983
x264 [info]: consecutive B-frames: 3.5% 7.3% 19.2% 15.0% 54.9%


Общее
Уникальный идентификатор : 245181603990628600049548365188563660934 (0xB874426114D60520AD6E10FF84AAF086)
Полное имя : E:\Jason Statham\Wild.Card.(2015).BDRip.720p.(60 Fps).mkv
Формат : Matroska
Версия формата : Version 4 / Version 2
Размер файла : 3,46 Гбайт
Продолжительность : 1 ч. 32 м.
Общий поток : 5369 Кбит/сек
Название фильма : Шальная Карта / Wild Card (2015) BDRip 720p от R.G. HD-Films | 60 fps
Дата кодирования : UTC 2015-06-09 12:51:22
Программа кодирования : mkvmerge v6.2.0 ('Promised Land') built on Apr 28 2013 12:22:01
Библиотека кодирования : libebml v1.3.0 + libmatroska v1.4.0

Видео
Идентификатор : 1
Формат : AVC
Формат/Информация : Advanced Video Codec
Профиль формата : High@L4.1
Параметр CABAC формата : Да
Параметр ReFrames формата : 4 кадра
Идентификатор кодека : V_MPEG4/ISO/AVC
Продолжительность : 1 ч. 32 м.
Битрейт : 4984 Кбит/сек
Ширина : 1280 пикселей
Высота : 528 пикселей
Соотношение сторон : 2,40:1
Режим частоты кадров : Постоянный
Частота кадров : 60,000 кадров/сек
Цветовое пространство : YUV
Субдискретизация насыщенности : 4:2:0
Битовая глубина : 8 бит
Тип развёртки : Прогрессивная
Бит/(Пиксели*Кадры) : 0.123
Размер потока : 3,14 Гбайт (91%)
Заголовок : Wild Card. (2015) BDRip 720p (60 fps).mkv
Библиотека кодирования : x264 core 130 r2273 b3065e6
Настройки программы : cabac=1 / ref=4 / deblock=1:0:0 / analyse=0x3:0x113 / me=umh / subme=8 / psy=1 / psy_rd=1.00:0.00 / mixed_ref=1 / me_range=24 / chroma_me=1 / trellis=2 / 8x8dct=1 / cqm=0 / deadzone=21,11 / fast_pskip=1 / chroma_qp_offset=-2 / threads=3 / lookahead_threads=1 / sliced_threads=0 / nr=0 / decimate=1 / interlaced=0 / bluray_compat=0 / constrained_intra=0 / bframes=4 / b_pyramid=2 / b_adapt=2 / b_bias=0 / direct=3 / weightb=1 / open_gop=0 / weightp=2 / keyint=250 / keyint_min=25 / scenecut=40 / intra_refresh=0 / rc_lookahead=40 / rc=2pass / mbtree=1 / bitrate=4984 / ratetol=1.0 / qcomp=0.60 / qpmin=0 / qpmax=69 / qpstep=4 / cplxblur=20.0 / qblur=0.5 / ip_ratio=1.40 / aq=1:1.00
Язык : English
Default : Да
Forced : Нет

Аудио
Идентификатор : 2
Формат : AC-3
Формат/Информация : Audio Coding 3
Расширение режима : CM (complete main)
Параметр Endianness формата : Big
Идентификатор кодека : A_AC3
Продолжительность : 1 ч. 32 м.
Вид битрейта : Постоянный
Битрейт : 384 Кбит/сек
Каналы : 6 каналов
Расположение каналов : Front: L C R, Side: L R, LFE
Частота : 48,0 КГц
Битовая глубина : 16 бит
Метод сжатия : С потерями
Размер потока : 253 Мбайт (7%)
Заголовок : Любительский (многоголосый, закадровый) - Paradox
Язык : Russian
Default : Да
Forced : Нет

Текст
Идентификатор : 3
Формат : UTF-8
Идентификатор кодека : S_TEXT/UTF8
Идентификатор кодека/Информация : UTF-8 Plain Text
Заголовок : Full
Язык : Russian
Default : Нет
Forced : Нет

Меню
00:00:00.000 : en:00:00:00.000
00:06:08.660 : en:00:06:08.660
00:14:12.351 : en:00:14:12.351
00:23:21.817 : en:00:23:21.817
00:27:53.296 : en:00:27:53.296
00:33:44.814 : en:00:33:44.814
00:39:56.894 : en:00:39:56.894
00:45:03.534 : en:00:45:03.534
00:49:49.194 : en:00:49:49.194
00:56:36.393 : en:00:56:36.393
01:00:54.317 : en:01:00:54.317
01:05:01.105 : en:01:05:01.105
01:10:29.558 : en:01:10:29.558
01:16:24.788 : en:01:16:24.788
01:21:46.276 : en:01:21:46.276
01:25:39.259 : en:01:25:39.259

pb.wtf



Скачать Джейсон Стэйтем через торрент http://i70.fastpic.ru/big/2015/0612/97/614aa584432459762acbdb5a008b7097.gif Скачать, смотреть онлайн Джейсон Стэйтем бесплантно в хорошем качестве Описание: Четверо молодых парней накопили каждый по 25 тысяч фунтов, чтобы один из них мог сыграть в карты с опытным шулером и матерым ... 9.5 10 30
Info! Золотая раздача, скачанное не засчитывается.
Торрент: Зарегистрирован [2015-06-12 17:03] · скачан: 137 раз
Статус: √ проверено
Размер: 70.38 GB
Как cкачать? Как скачать Джейсон Стэйтем через торрент | UTorrent



Последний раз редактировалось: slaventi-69 (2015-06-12 17:47), всего редактировалось 2 раз(а)

28-11-2019 20:33  

Отключить всю рекламу на сайте

12-06-2015 17:28 Джейсон Стэйтем Скачать торрент  

slaventi-69,
yes Сборник лучших фильмов!pb.wtf



12-06-2015 17:39 Джейсон Стэйтем Скачать торрент  

Наконец то дождались !pb.wtf



12-06-2015 17:44 Джейсон Стэйтем Скачать торрент  

А как же "Адреналин"?!?!?!?!pb.wtf



12-06-2015 18:10 Джейсон Стэйтем Скачать торрент  

Смертельная гонка и Адреналин будут позже, немного терпения.pb.wtf



12-06-2015 18:56 Джейсон Стэйтем Скачать торрент  

PlVoltan писал(а):

А как же "Адреналин"?!?!?!?!

Да хрен с ним,с "Адреналином"!"Перевозчика"нет-вот где беда то! :druncp:pb.wtf



12-06-2015 19:06 Джейсон Стэйтем Скачать торрент  

Stopper68 писал(а):

PlVoltan писал(а):

А как же "Адреналин"?!?!?!?!

Да хрен с ним,с "Адреналином"!"Перевозчика"нет-вот где беда то! :druncp:

Перевозчик чуть ниже. Как насчет поиска?
Перевозчик - Трилогия / The Transporter - Trilogy pb.wtf



12-06-2015 19:50 Джейсон Стэйтем Скачать торрент  

slaventi-69 писал(а):

Stopper68 писал(а):

PlVoltan писал(а):

А как же "Адреналин"?!?!?!?!

Да хрен с ним,с "Адреналином"!"Перевозчика"нет-вот где беда то! :druncp:

Перевозчик чуть ниже. Как насчет поиска?
Перевозчик - Трилогия / The Transporter - Trilogy

Надо все фильмы в сборку добавлять!!!! Спасибо за старания!!!!pb.wtf



12-06-2015 21:41 Джейсон Стэйтем Скачать торрент  

Револьвер - лучший фильм с его участием. имхоpb.wtf



13-06-2015 07:44 Джейсон Стэйтем Скачать торрент  

посредственный актер, но фильмы гуд! спсpb.wtf



13-06-2015 13:26 Джейсон Стэйтем Скачать торрент  

Большой куш(с нормальным названием и гоблинским переводом), карты деньги, профессионал, ограбление на бейкерстрит, по италиански, адреналин 1-2, злая машина(его здесь нет), смертельная гонка(!удивительно, хотя Пол Андерсон на одном уровне с уеболом, считаю, стоит) - эти очень понравились, 13 - на раз пойдет, лондон - не осилил, остальное - треш. Перевозчик - дорогой треш, больше реклама автобрендов. Тандем с Джетом Ли к сожалению не взлетел(((, у каждого по отдельности гораздо круче картины есть. Револьвер - отдельная тема, пересматриваю каждый раз с удовольствием как в оригинале, так и с первоначальным бубляжем(кинотеатральным). Саундтрек - доставляет.pb.wtf



21-03-2016 11:23 Джейсон Стэйтем Скачать торрент  

пасиб pb.wtf



28-03-2017 15:22 Джейсон Стэйтем Скачать торрент  

Пора дополнять ужеpb.wtf



11-06-2019 21:25 Джейсон Стэйтем Скачать торрент  

seed pleasepb.wtf



02-07-2020 17:13 Джейсон Стэйтем Скачать торрент  

Наверно больше года,если не запямятывал,не мог скачать.Очень хотелось "Ограбление по итальянски"в 60 кадров.
Свершилось...!
ОГРОМНОЕ ВАМ ЧЕЛОВЕЧЕСКОЕ СПАСИБО!!!pb.wtf



    Дорогой пользователь! Огромная просьба, поблагодарите релизера, оцените раздачу и оставьте свои комментарий, если Вы скачали Джейсон Стэйтем через торрент бесплатно!
    Комментировать посты могут только пользователи прошедшие не сложную регистрацию
    Показать сообщения:    

    Джейсон Стэйтем через торрент
    Скачать бесплатно Джейсон Стэйтем
    Джейсон Стэйтем скачать торрент
    Джейсон Стэйтем смотреть онлайн
    Cкачать фильм Джейсон Стэйтем бесплатно
    Джейсон Стэйтем скачать торрент в хорошем качестве
    Джейсон Стэйтем смотреть онлайн бесплатно в хорошем качестве


    Вы не можете начинать темы
    Вы не можете отвечать на сообщения
    Вы не можете редактировать свои сообщения
    Вы не можете удалять свои сообщения
    Вы не можете голосовать в опросах
    Вы не можете прикреплять файлы к сообщениям
    Вы можете скачивать файлы