Ссылка на приватное зеркало нашего сайта всего за 1$. Внимание количество ограничено!!!

2 сезон

iTunes

1 сезон

1

iTunes

iTunes

iTunes

1 сезон

RePack

30

ИГРА 18+

pack

ВАЖНО

!!Акция!!

Alien_RageХит недели

RePack

MK11
pack

Забери бонус

RePack

jed

!!Акция!!

Alien_Rage

RePack

fifa19

RePack

Assassins Creed: Odyssey

RePack

NEED FOR SPEED™ PAYBACK

4 сезон

9 сезон

Бесстыжие 9 сезон

Все сериалы

все сериалы на PB.wtf

RePack

FAR CRY 5
  

Василиса Серии: 1-4 из 4 (Антон Сиверс) [2014, исторический фильм, мелодрама, HDTVRip-AVC] [Расширенная телеверсия] pb.wtf

Василиса Серии: 1-4 из 4 через торрент pb.wtf

Размер: 2.76 GB | Добавлен: 5 лет 4 мес. назад | Торрент скачан:366 раз
Скачать  

13-06-2015 10:51 Василиса Серии: 1-4 из 4 Скачать торрент  

ВАСИЛИСА
«Моя любовь. Моя война. Моё отечество»


Год выпуска: 2014
Производство: Россия / Всемирные Русские Студии
Жанр: исторический фильм, мелодрама
Продолжительность: ~ 00:47:00 серия
Субтитры: нет

Режиссёр: Антон Сиверс

В ролях: Светлана Ходченкова, Дмитрий Соломыкин, Жером Кузан, Кристина Кузьмина, Игорь Черневич, Ирина Розанова, Андрей Ильин, Илья Носков, Андрей Носков, Жоанн Морио, Оливье Сиу, Сесиль Жендр, Ксения Разина, Николай Спиридонов, Федя Никитин, Валерий Немешаев, Юрий Кузнецов, Алексей Барабаш, Владимир Матвеев, Юрий Батурин, Виталий Коваленко, Анна Арланова, Юлия Такшина

Описание: Иван и Василиса любят друг друга. Но им не суждено быть вместе – он дворянин, а она крепостная крестьянка. Возможно, так и закончилась бы эта любовная история, если бы не одно сокрушительное событие – ВОЙНА. Наполеон вторгся в пределы Российской Империи, и этот день изменил всё – привычный уклад, сословные предрассудки, обычную человеческую логику поведения померкло перед лицом национальной беды.
Мир больше никогда не станет прежним. Теперь будет кровь и смерть, теперь будет предательство и подвиги. Но в этом горниле для Василисы появляется возможность стать собой. Она становится во главе партизанского отряда, а Иван, рискуя жизнью, участвует в военных операциях регулярной армии. Шаг за шагом молодые люди движутся навстречу друг другу, навстречу своей любви. Война пишет новую историю их отношений. Победа в войне становится победой любви.



Качество: HDTVRip-AVC
Формат: MKV
Видео кодек: H.264
Аудио кодек: AC3
Видео: MPEG-4 AVC, 1024х576,25fps,2094 Кбит/сек,Bits/Pixel 0.129
Аудио: AC3, 48 kHz, ~192 Kbps, 2 канала
Общее
Уникальный идентификатор : 229502746792663191888781518755955291042 (0xACA89F095E7D8BEEBFF77C5CED4533A2)
Полное имя : F:\Василиса\01 серия.mkv
Формат : Matroska
Версия формата : Version 2
Размер файла : 710 Мбайт
Продолжительность : 47 м.
Общий поток : 2094 Кбит/сек
Дата кодирования : UTC 2015-06-12 23:52:23
Программа кодирования : mkvmerge v7.8.0 ('River Man') 32bit built on Apr 3 2015 12:11:22
Библиотека кодирования : libebml v1.3.1 + libmatroska v1.4.2

Видео
Идентификатор : 1
Формат : AVC
Формат/Информация : Advanced Video Codec
Профиль формата : High@L4.1
Параметр CABAC формата : Да
Параметр ReFrames формата : 9 кадров
Идентификатор кодека : V_MPEG4/ISO/AVC
Продолжительность : 47 м.
Битрейт : 1900 Кбит/сек
Ширина : 1024 пикселя
Высота : 576 пикселей
Соотношение сторон : 16:9
Режим частоты кадров : Постоянный
Частота кадров : 25,000 кадров/сек
Цветовое пространство : YUV
Субдискретизация насыщенности : 4:2:0
Битовая глубина : 8 бит
Тип развёртки : Прогрессивная
Бит/(Пиксели*Кадры) : 0.129
Размер потока : 631 Мбайт (89%)
Библиотека кодирования : x264 core 146 r2538 121396c
Настройки программы : cabac=1 / ref=9 / deblock=1:-3:-3 / analyse=0x3:0x113 / me=umh / subme=9 / psy=1 / psy_rd=1.00:0.00 / mixed_ref=1 / me_range=32 / chroma_me=0 / trellis=2 / 8x8dct=1 / cqm=0 / deadzone=21,11 / fast_pskip=1 / chroma_qp_offset=-2 / threads=6 / lookahead_threads=4 / sliced_threads=0 / nr=0 / decimate=0 / interlaced=0 / bluray_compat=0 / constrained_intra=0 / bframes=9 / b_pyramid=2 / b_adapt=1 / b_bias=0 / direct=1 / weightb=1 / open_gop=0 / weightp=2 / keyint=250 / keyint_min=25 / scenecut=40 / intra_refresh=0 / rc_lookahead=30 / rc=2pass / mbtree=1 / bitrate=1900 / ratetol=1.0 / qcomp=0.60 / qpmin=0 / qpmax=69 / qpstep=4 / cplxblur=20.0 / qblur=0.5 / vbv_maxrate=14000 / vbv_bufsize=14000 / nal_hrd=none / filler=0 / ip_ratio=1.40 / aq=1:1.00
Default : Да
Forced : Нет
Цветовой диапазон : Limited
Основные цвета : BT.709
Характеристики трансфера : BT.709
Коэффициенты матрицы : BT.709

Аудио
Идентификатор : 2
Формат : AC-3
Формат/Информация : Audio Coding 3
Расширение режима : CM (complete main)
Параметр Endianness формата : Big
Идентификатор кодека : A_AC3
Продолжительность : 47 м.
Вид битрейта : Постоянный
Битрейт : 192 Кбит/сек
Каналы : 2 канала
Расположение каналов : Front: L R
Частота : 48,0 КГц
Метод сжатия : С потерями
Размер потока : 65,2 Мбайт (9%)
Default : Да
Forced : Нет
Внимание! Раздача ведётся путём добавления новых серий; при каждом добавлении создаётся новый торрент.
Чтобы начать докачку новой серии, пользователям необходимо сделать следующее:
1. Остановить скачивание;
2. Удалить старый торрент у себя из клиента (старые серии удалять не надо);
3. Скачать новый торрент и запустить его у себя в клиенте вместо старого, при этом указать клиенту путь в старую папку куда и должно происходить скачивание новых серий. Ваш клиент при этом должен произвести хеширование (проверку) старой папки и будет докачивать только те серии, которых у вас ещё нет. Старые серии при этом не удаляются, а продолжают раздаваться! Eсли вы уже удалили старые серии, то предотвратить повторную закачку старых серий можно, отжав галочку в соответствующих местах при запуске нового торрента.
Добавлена 3-4 серия.pb.wtf



Скачать Василиса Серии: 1-4 из 4 через торрент http://i70.fastpic.ru/big/2015/0613/70/cab507722d66700635a3a8fd96a0f070.jpg Скачать фильм Василиса Серии: 1-4 из 4 через торрент бесплантно в хорошем качестве Описание: Иван и Василиса любят друг друга. Но им не суждено быть вместе – он дворянин, а она крепостная крестьянка. Возможно, так и ... 7.9 10 9
Торрент: Зарегистрирован [2015-06-14 08:04] · скачан: 366 раз
Статус: √ проверено
Размер: 2.76 GB
Как cкачать? Как скачать Василиса Серии: 1-4 из 4 через торрент | qTorrent

28-11-2019 20:33  

Отключить всю рекламу на сайте

    Дорогой пользователь! Огромная просьба, поблагодарите релизера, оцените раздачу и оставьте свои комментарий, если Вы скачали Василиса Серии: 1-4 из 4 через торрент бесплатно! Внесите свою лепту в развитие PiratBit!
    Комментировать посты могут только пользователи прошедшие не сложную регистрацию
    Показать сообщения:    

    Василиса Серии: 1-4 из 4 через торрент
    Скачать бесплатно Василиса Серии: 1-4 из 4
    Василиса Серии: 1-4 из 4 скачать торрент
    Василиса Серии: 1-4 из 4 смотреть онлайн
    Cкачать фильм Василиса Серии: 1-4 из 4 бесплатно
    Василиса Серии: 1-4 из 4 скачать торрент в хорошем качестве
    Василиса Серии: 1-4 из 4 смотреть онлайн бесплатно в хорошем качестве


    Вы не можете начинать темы
    Вы не можете отвечать на сообщения
    Вы не можете редактировать свои сообщения
    Вы не можете удалять свои сообщения
    Вы не можете голосовать в опросах
    Вы не можете прикреплять файлы к сообщениям
    Вы можете скачивать файлы