Ссылка на приватное зеркало нашего сайта всего за 1$. Внимание количество ограничено!!!

2 сезон

iTunes

1 сезон

1

iTunes

iTunes

iTunes

1 сезон

RePack

30

ИГРА 18+

pack

ВАЖНО

!!Акция!!

Alien_RageХит недели

RePack

MK11
pack

Забери бонус

RePack

jed

!!Акция!!

Alien_Rage

RePack

fifa19

RePack

Assassins Creed: Odyssey

RePack

NEED FOR SPEED™ PAYBACK

4 сезон

9 сезон

Бесстыжие 9 сезон

Все сериалы

все сериалы на PB.wtf

RePack

FAR CRY 5
  

Волки / Wolfen (Майкл Уодли) [1981, ужасы, триллер, BDRip 720p by msltel] 2 x DVO, AVO pb.wtf

Волки через торрент pb.wtf

Размер: 4.95 GB | Добавлен: 1 год 11 мес. назад | Торрент скачан:13 раз
Скачать  

14-06-2015 06:48 Волки Скачать торрент  

Название: Волки
Оригинальное название: Wolfen
Год выпуска: 1981
Страна: США
Жанр: ужасы, триллер
Продолжительность: 01:54:06
Перевод: профессиональный двухголосый, авторский

Режиссёр: Майкл Уодли

В ролях: Альберт Финни, Дайан Венора, Эдвард Джеймс Олмос, Грегори Хайнс, Том Нунен, Дик О’Нил, Дел Берти, Питер Майкл Гец, Сэм Грэй, Ральф Белл, Макс М. Браун, Энн Мари Потамо, Сара Фелдер, Реджинальд ВелДжонсон, Джеймс Толкан, Джон МакКарри, Крис Мэнор, Дональд Симингтон, Джеффри Уэр, Джеффри Томпсон, Виктор Арнольд, Фрэнк Адонис, Ричард Минченберг, Рэймонд Серра, Томас Райан

О фильме: Как вы думаете, что общего может быть между богатым торговцем недвижимостью, его женой-наркоманкой и грязным пьяницей из трущоб? Лишь одно жуткое обстоятельство: все они - жертвы неслыханных по жестокости убийств, потрясших Нью-Йорк. Ведущий расследование ветеран убойного отдела скоро с ужасом начинает понимать, что зловещие убийства совершаются древними сверхъестественными существами... В основе сценария роман Уитли Страйбера Оборотни / The Wolfen (1978).



Качество: BDRip 720p
Формат: MKV
Видео: MPEG-4 AVC, 5182 Кбит/с, 1280х534, 23,976 кадра/с
Аудио 1: русский, AC3, 192 kbps, 2 ch, 48 kHz [закадровый двухголосый, Премьер-фильм]
Аудио 2: русский, AC3, 192 kbps, 2 ch, 48 kHz [закадровый двухголосый, HTB VHS]
Аудио 3: русский, AC3, 192 kbps, 2 ch, 48 kHz [авторский, Сергей Визгунов]
Аудио 4: английский, AC3, 448 kbps, 6 ch, 48 kHz [оригинал]
Субтитры: английские
Главы/чаптеры
Общее
Уникальный идентификатор : 212531495629393510233743788912936153045 (0x9FE413C07B9CD90C9F2C372A2532EFD5)
Полное имя : D:\Video\Волки.1981.BDRip 720p by msltel.mkv
Формат : Matroska
Версия формата : Version 4
Размер файла : 4,95 Гбайт
Продолжительность : 1 ч. 54 м.
Общий поток : 6208 Кбит/сек
Название фильма : Rip by msltel
Дата кодирования : UTC 2018-11-22 10:28:43
Программа кодирования : mkvmerge v8.2.0 ('World of Adventure') 64bit
Библиотека кодирования : libebml v1.3.1 + libmatroska v1.4.2

Видео
Идентификатор : 1
Формат : AVC
Формат/Информация : Advanced Video Codec
Профиль формата : High@L4.1
Настройки формата : CABAC / 9 Ref Frames
Параметр CABAC формата : Да
Параметр RefFrames формата : 9 кадров
Идентификатор кодека : V_MPEG4/ISO/AVC
Продолжительность : 1 ч. 54 м.
Битрейт : 5182 Кбит/сек
Ширина : 1280 пикселей
Высота : 534 пикселя
Соотношение сторон : 2,40:1
Режим частоты кадров : Постоянный
Частота кадров : 23,976 (24000/1001) кадра/сек
Цветовое пространство : YUV
Субдискретизация насыщенности : 4:2:0
Битовая глубина : 8 бит
Тип развёртки : Прогрессивная
Бит/(Пиксели*Кадры) : 0.316
Размер потока : 4,13 Гбайт (83%)
Библиотека кодирования : x264 core 155 r2901 7d0ff22
Настройки программы : cabac=1 / ref=9 / deblock=1:-3:-2 / analyse=0x3:0x113 / me=umh / subme=11 / psy=1 / psy_rd=1.00:0.15 / mixed_ref=1 / me_range=32 / chroma_me=1 / trellis=2 / 8x8dct=1 / cqm=0 / deadzone=21,11 / fast_pskip=0 / chroma_qp_offset=-3 / threads=6 / lookahead_threads=1 / sliced_threads=0 / nr=0 / decimate=1 / interlaced=0 / bluray_compat=0 / constrained_intra=0 / bframes=16 / b_pyramid=2 / b_adapt=2 / b_bias=0 / direct=1 / weightb=1 / open_gop=0 / weightp=2 / keyint=230 / keyint_min=23 / scenecut=40 / intra_refresh=0 / rc_lookahead=40 / rc=crf / mbtree=1 / crf=18.5 / qcomp=0.60 / qpmin=0 / qpmax=69 / qpstep=4 / vbv_maxrate=62500 / vbv_bufsize=78125 / crf_max=0.0 / nal_hrd=none / filler=0 / ip_ratio=1.40 / aq=1:1.00
Язык : English
Default : Да
Forced : Нет

Аудио #1
Идентификатор : 2
Формат : AC-3
Формат/Информация : Audio Coding 3
Коммерческое название : Dolby Digital
Идентификатор кодека : A_AC3
Продолжительность : 1 ч. 54 м.
Вид битрейта : Постоянный
Битрейт : 192 Кбит/сек
Каналы : 2 канала
Channel layout : L R
Частота : 48,0 КГц
Частота кадров : 31,250 кадров/сек (1536 SPF)
Битовая глубина : 16 бит
Метод сжатия : С потерями
Размер потока : 157 Мбайт (3%)
Заголовок : DVO Премьер-фильм
Язык : Russian
ServiceKind/String : Complete Main
Default : Да
Forced : Нет

Аудио #2
Идентификатор : 3
Формат : AC-3
Формат/Информация : Audio Coding 3
Коммерческое название : Dolby Digital
Идентификатор кодека : A_AC3
Продолжительность : 1 ч. 54 м.
Вид битрейта : Постоянный
Битрейт : 192 Кбит/сек
Каналы : 2 канала
Channel layout : L R
Частота : 48,0 КГц
Частота кадров : 31,250 кадров/сек (1536 SPF)
Битовая глубина : 16 бит
Метод сжатия : С потерями
Размер потока : 157 Мбайт (3%)
Заголовок : DVO HTB VHS
Язык : Russian
ServiceKind/String : Complete Main
Default : Нет
Forced : Нет

Аудио #3
Идентификатор : 4
Формат : AC-3
Формат/Информация : Audio Coding 3
Коммерческое название : Dolby Digital
Идентификатор кодека : A_AC3
Продолжительность : 1 ч. 54 м.
Вид битрейта : Постоянный
Битрейт : 192 Кбит/сек
Каналы : 2 канала
Channel layout : L R
Частота : 48,0 КГц
Частота кадров : 31,250 кадров/сек (1536 SPF)
Битовая глубина : 16 бит
Метод сжатия : С потерями
Размер потока : 157 Мбайт (3%)
Заголовок : Сергей Визгунов
Язык : Russian
ServiceKind/String : Complete Main
Default : Нет
Forced : Нет

Аудио #4
Идентификатор : 5
Формат : AC-3
Формат/Информация : Audio Coding 3
Коммерческое название : Dolby Digital
Идентификатор кодека : A_AC3
Продолжительность : 1 ч. 54 м.
Вид битрейта : Постоянный
Битрейт : 448 Кбит/сек
Каналы : 6 каналов
Channel layout : L R C LFE Ls Rs
Частота : 48,0 КГц
Частота кадров : 31,250 кадров/сек (1536 SPF)
Битовая глубина : 16 бит
Метод сжатия : С потерями
Размер потока : 366 Мбайт (7%)
Заголовок : original
Язык : English
ServiceKind/String : Complete Main
Default : Нет
Forced : Нет

Текст
Идентификатор : 6
Формат : UTF-8
Идентификатор кодека : S_TEXT/UTF8
Идентификатор кодека/Информация : UTF-8 Plain Text
Продолжительность : 1 ч. 47 м.
Битрейт : 39 бит/сек
ElementCount : 913
Размер потока : 31,4 Кбайт (0%)
Заголовок : английские
Язык : English
Default : Нет
Forced : Нет

Меню
00:00:00.000 : :Chapter 1
00:02:39.156 : :Chapter 2
00:05:49.598 : :Chapter 3
00:10:53.818 : :Chapter 4
00:15:49.865 : :Chapter 5
00:19:21.367 : :Chapter 6
00:22:38.647 : :Chapter 7
00:25:02.459 : :Chapter 8
00:27:58.134 : :Chapter 9
00:30:28.785 : :Chapter 10
00:33:06.483 : :Chapter 11
00:36:32.148 : :Chapter 12
00:38:55.248 : :Chapter 13
00:45:43.532 : :Chapter 14
00:50:14.010 : :Chapter 15
00:53:38.715 : :Chapter 16
00:57:03.085 : :Chapter 17
01:01:41.197 : :Chapter 18
01:05:53.282 : :Chapter 19
01:10:44.488 : :Chapter 20
01:14:44.604 : :Chapter 21
01:16:51.398 : :Chapter 22
01:18:59.109 : :Chapter 23
01:26:36.106 : :Chapter 24
01:30:51.237 : :Chapter 25
01:35:01.694 : :Chapter 26
01:38:54.552 : :Chapter 27
01:41:01.846 : :Chapter 28
01:42:59.171 : :Chapter 29
01:46:12.573 : :Chapter 30
01:48:23.287 : :Chapter 31
01:49:30.564 : :Chapter 32
01:54:04.921 : :Chapter 33
pb.wtf



Скачать Волки через торрент http://i72.fastpic.ru/big/2015/0611/ac/528f0fc5c62aa3c65fe13c21cad78aac.jpg Скачать фильм Волки через торрент бесплантно в хорошем качестве О фильме: Как вы думаете, что общего может быть между богатым торговцем недвижимостью, его женой-наркоманкой и грязным пьяницей из трущоб? ... 10 10 6
Info! Золотая раздача, скачанное не засчитывается.
Торрент: Зарегистрирован [2018-11-22 07:08] · скачан: 13 раз
Статус: √ проверено
Размер: 4.95 GB
Как cкачать? Как скачать Волки через торрент | qTorrent

% Раздел Тема Автор DL S | L
Фильмы [HD 720p, 1080p] (Хороший звук DUB, MVO) [ 13.43 GB ] Волки / Wolfen [1981 BDRip 1080p by msltel] 2 x DVO AVO msltel Скачать
1 | 0

28-11-2019 20:33  

Отключить всю рекламу на сайте

    Дорогой пользователь! Огромная просьба, поблагодарите релизера, оцените раздачу и оставьте свои комментарий, если Вы скачали Волки через торрент бесплатно! Внесите свою лепту в развитие PiratBit!
    Комментировать посты могут только пользователи прошедшие не сложную регистрацию
    Показать сообщения:    

    Волки через торрент
    Скачать бесплатно Волки
    Волки скачать торрент
    Волки смотреть онлайн
    Cкачать фильм Волки бесплатно
    Волки скачать торрент в хорошем качестве
    Волки смотреть онлайн бесплатно в хорошем качестве


    Вы не можете начинать темы
    Вы не можете отвечать на сообщения
    Вы не можете редактировать свои сообщения
    Вы не можете удалять свои сообщения
    Вы не можете голосовать в опросах
    Вы не можете прикреплять файлы к сообщениям
    Вы можете скачивать файлы