Ссылка на приватное зеркало нашего сайта всего за 1$. Внимание количество ограничено!!!

2 сезон

iTunes

1 сезон

1

2 сезон

2 сезон

iTunes

1 сезон

RePack

30

Ultimate

ВАЖНО

ИГРА 18+

pack

RePack

MK11
pack

Забери бонус

RePack

jed

!!Акция!!

Alien_Rage

RePack

fifa19

RePack

Assassins Creed: Odyssey

RePack

NEED FOR SPEED™ PAYBACK

4 сезон

9 сезон

Бесстыжие 9 сезон

Все сериалы

все сериалы на PB.wtf

RePack

FAR CRY 5
  

Смертельная гонка: Трилогия / Death Race - Trilogy (Пол У.С. Андерсон, Роел Рейне) [2008, 2010, 2012, США, Германия, Великобритания, ЮАР, боевик, триллер, криминал, BDRip 720p,DUB] 60fps от R.G. HD-Films pb.wtf

Смертельная гонка: Трилогия через торрент pb.wtf

Размер: 13.07 GB | Добавлен: 5 лет 5 мес. назад | Торрент скачан:224 раза
Скачать  

14-06-2015 10:27 Смертельная гонка: Трилогия Скачать торрент  

Смертельная гонка: Трилогия / Death Race - Trilogy
Смертельная гонка / Death Race

Год выпуска: 2008
Страна: США, Германия, Великобритания
Жанр: фантастика, боевик, триллер

Продолжительность: 01:50:29
Перевод: Дубляж
Субтитры: русские (Fors),
русские (Full),
Режиссер: Пол У. С. Андерсон
В ролях: Джейсон Стэйтем (Jensen Ames), Джоан Аллен (Hennessey), Иэн МакШейн (Coach), Тайриз Гибсон (Machine Gun Joe), Натали Мартинес (Case), Макс Райан (Pachenko), Джейсон Кларк (Ulrich), Фредерик Колер (Lists), Джейкоб Варгас (Gunner), Джастин Мэдер (Travis Colt), Роберт ЛаСардо (Grimm), Робин Шоу (14K)
Описание:
Трехкратный чемпион-гонщик Дженсен Эймс посажен в тюрьму за убийство, которого не совершал. Вместо того, чтобы выпустить его на свободу, тюремщики заставляют его вместе с самыми отъявленными преступниками участвовать в кровавом состязании. Оказавшись за рулем чудовищного автомобиля, оборудованного автоматами, огнеметами и гранатометами, этот отчаянный человек разрушит все на своем пути, чтобы выиграть самую зрелищную гонку на выживание на Земле.
Рейтинг:

MPAA: R - Лицам до 17 лет обязательно присутствие взрослого
Качество: BDRip 720p
Формат: MKV
Видео кодек: AVC
Аудио кодек: AC3
Видео: AVC, 1280x544 (2.35:1), 5464 kbps, 60,000 fps, 0,131 bpp
Аудио: русский / AC3 / 5.1 / 48 kHz / 384 kbps / 16 bit ||

Автор рипа: slaventi-69

Код:

General
Unique ID                                : 228268035228153631708632029025159616440 (0xABBAD30E731C38B2AE6636A2025017B8)
Complete name                            : D:\DVD\Death Race (2008-2012)\Death.Race.(2008).BDRip.720p.(60 Fps).mkv
Format                                   : Matroska
Format version                           : Version 4 / Version 2
File size                                : 4.61 GiB
Duration                                 : 1h 50mn
Overall bit rate                         : 5 968 Kbps
Movie name                               : Смертельная гонка / Death Race (2008) BDRip 720p от R.G. HD-Films | 60 fps
Encoded date                             : UTC 2015-06-13 14:16:37
Writing application                      : mkvmerge v6.2.0 ('Promised Land') built on Apr 28 2013 12:22:01
Writing library                          : libebml v1.3.0 + libmatroska v1.4.0

Video
ID                                       : 1
Format                                   : AVC
Format/Info                              : Advanced Video Codec
Format profile                           : High@L4.1
Format settings, CABAC                   : Yes
Format settings, ReFrames                : 4 frames
Codec ID                                 : V_MPEG4/ISO/AVC
Duration                                 : 1h 50mn
Bit rate                                 : 5 465 Kbps
Width                                    : 1 280 pixels
Height                                   : 544 pixels
Display aspect ratio                     : 2.35:1
Frame rate                               : 60.000 fps
Color space                              : YUV
Chroma subsampling                       : 4:2:0
Bit depth                                : 8 bits
Scan type                                : Progressive
Bits/(Pixel*Frame)                       : 0.131
Stream size                              : 4.22 GiB (92%)
Title                                    : Death Race (2008) BDRip 720p (60 Fps).mkv
Writing library                          : x264 core 130 r2273 b3065e6
Encoding settings                        : cabac=1 / ref=4 / deblock=1:0:0 / analyse=0x3:0x113 / me=umh / subme=9 / psy=1 / psy_rd=1.00:0.00 / mixed_ref=1 / me_range=26 / chroma_me=1 / trellis=2 / 8x8dct=1 / cqm=0 / deadzone=21,11 / fast_pskip=1 / chroma_qp_offset=-2 / threads=12 / lookahead_threads=1 / sliced_threads=0 / nr=0 / decimate=1 / interlaced=0 / bluray_compat=0 / constrained_intra=0 / bframes=4 / b_pyramid=2 / b_adapt=2 / b_bias=0 / direct=1 / weightb=1 / open_gop=0 / weightp=2 / keyint=250 / keyint_min=25 / scenecut=40 / intra_refresh=0 / rc_lookahead=40 / rc=crf / mbtree=1 / crf=16.0 / qcomp=0.60 / qpmin=0 / qpmax=69 / qpstep=4 / ip_ratio=1.40 / aq=1:1.00
Language                                 : English
Default                                  : Yes
Forced                                   : No

Audio
ID                                       : 2
Format                                   : AC-3
Format/Info                              : Audio Coding 3
Mode extension                           : CM (complete main)
Codec ID                                 : A_AC3
Duration                                 : 1h 50mn
Bit rate mode                            : Constant
Bit rate                                 : 384 Kbps
Channel(s)                               : 6 channels
Channel positions                        : Front: L C R, Side: L R, LFE
Sampling rate                            : 48.0 KHz
Bit depth                                : 16 bits
Compression mode                         : Lossy
Stream size                              : 303 MiB (6%)
Title                                    : Dub
Language                                 : Russian
Default                                  : Yes
Forced                                   : No

Text #1
ID                                       : 3
Format                                   : UTF-8
Codec ID                                 : S_TEXT/UTF8
Codec ID/Info                            : UTF-8 Plain Text
Title                                    : Fors
Language                                 : Russian
Default                                  : No
Forced                                   : No

Text #2
ID                                       : 4
Format                                   : UTF-8
Codec ID                                 : S_TEXT/UTF8
Codec ID/Info                            : UTF-8 Plain Text
Title                                    : Full
Language                                 : Russian
Default                                  : No
Forced                                   : No

Смертельная гонка 2: Франкенштейн жив / Death Race 2

Год выпуска: 2010
Страна: ЮАР, Германия
Жанр: фантастика, боевик, триллер

Продолжительность: 01:40:42
Перевод: Дубляж
Субтитры: русские (forced),
русские (Full),
Режиссер: Роэль Рейн
В ролях: Люк Госс (Carl «Luke» Lucas), Лорен Кохэн (September Jones), Шон Бин (Markus Kane), Винг Реймз (Weyland), Танит Феникс (Katrina Banks), Патрик Листер (Warden Medford Parks), Доби Опарей (Big Bill), Фредерик Колер (Lists), Робин Шоу (14K), Дэнни Трехо (Goldberg), Джо Ваз (Rocco), Дэнни Кеог (Dr. Klein)
Описание:
Действие происходит в ближайшем будущем, когда экономика США начнёт своё снижение и на страну обрушится волна насилия. Чтобы сдержать постоянно растущее уголовное население создаются частные тюрьмы. Худшая из этих тюрем - Терминал Айленд, где заключенным приходится воевать с другими заключенными за свою жизнь в телевизионном шоу.
Рейтинг:

MPAA: R - Лицам до 17 лет обязательно присутствие взрослого
Качество: BDRip 720p
Формат: MKV
Видео кодек: AVC
Аудио кодек: AC3
Видео: AVC, 1280x720 (16:9), 5082 kbps, 60,000 fps, 0,092 bpp
Аудио: русский / AC3 / 5.1 / 48 kHz / 384 kbps / 16 bit ||

Автор рипа: slaventi-69

Код:

General
Unique ID                                : 230186053360761824887119430050841029797 (0xAD2C38A6C656E18787FE7D8A435EECA5)
Complete name                            : D:\DVD\Death Race (2008-2012)\Death.Race.2.(2010).BDRip.720p.(60 Fps).mkv
Format                                   : Matroska
Format version                           : Version 4 / Version 2
File size                                : 3.92 GiB
Duration                                 : 1h 40mn
Overall bit rate                         : 5 578 Kbps
Movie name                               : Смертельная гонка 2: Франкенштейн жив / Death Race 2 (2010) BDRip 720p от R.G. HD-Films | 60 fps
Encoded date                             : UTC 2015-06-13 14:29:05
Writing application                      : mkvmerge v6.2.0 ('Promised Land') built on Apr 28 2013 12:22:01
Writing library                          : libebml v1.3.0 + libmatroska v1.4.0

Video
ID                                       : 1
Format                                   : AVC
Format/Info                              : Advanced Video Codec
Format profile                           : High@L4.1
Format settings, CABAC                   : Yes
Format settings, ReFrames                : 4 frames
Codec ID                                 : V_MPEG4/ISO/AVC
Duration                                 : 1h 40mn
Bit rate                                 : 5 083 Kbps
Width                                    : 1 280 pixels
Height                                   : 720 pixels
Display aspect ratio                     : 16:9
Frame rate                               : 60.000 fps
Color space                              : YUV
Chroma subsampling                       : 4:2:0
Bit depth                                : 8 bits
Scan type                                : Progressive
Bits/(Pixel*Frame)                       : 0.092
Stream size                              : 3.58 GiB (91%)
Title                                    : Death Race 2 (2010) BDRip 720p (60 Fps).mkv
Writing library                          : x264 core 130 r2273 b3065e6
Encoding settings                        : cabac=1 / ref=4 / deblock=1:0:0 / analyse=0x3:0x113 / me=umh / subme=9 / psy=1 / psy_rd=1.00:0.00 / mixed_ref=1 / me_range=26 / chroma_me=1 / trellis=2 / 8x8dct=1 / cqm=0 / deadzone=21,11 / fast_pskip=1 / chroma_qp_offset=-2 / threads=12 / lookahead_threads=1 / sliced_threads=0 / nr=0 / decimate=1 / interlaced=0 / bluray_compat=0 / constrained_intra=0 / bframes=4 / b_pyramid=2 / b_adapt=2 / b_bias=0 / direct=1 / weightb=1 / open_gop=0 / weightp=2 / keyint=600 / keyint_min=59 / scenecut=40 / intra_refresh=0 / rc_lookahead=40 / rc=crf / mbtree=1 / crf=17.0 / qcomp=0.60 / qpmin=0 / qpmax=69 / qpstep=4 / ip_ratio=1.40 / aq=1:1.00
Language                                 : English
Default                                  : Yes
Forced                                   : No

Audio
ID                                       : 2
Format                                   : AC-3
Format/Info                              : Audio Coding 3
Mode extension                           : CM (complete main)
Codec ID                                 : A_AC3
Duration                                 : 1h 40mn
Bit rate mode                            : Constant
Bit rate                                 : 384 Kbps
Channel(s)                               : 6 channels
Channel positions                        : Front: L C R, Side: L R, LFE
Sampling rate                            : 48.0 KHz
Bit depth                                : 16 bits
Compression mode                         : Lossy
Stream size                              : 277 MiB (7%)
Title                                    : Dub
Language                                 : Russian
Default                                  : Yes
Forced                                   : No

Text #1
ID                                       : 3
Format                                   : UTF-8
Codec ID                                 : S_TEXT/UTF8
Codec ID/Info                            : UTF-8 Plain Text
Title                                    : forced
Language                                 : Russian
Default                                  : No
Forced                                   : No

Text #2
ID                                       : 4
Format                                   : UTF-8
Codec ID                                 : S_TEXT/UTF8
Codec ID/Info                            : UTF-8 Plain Text
Title                                    : Full
Language                                 : Russian
Default                                  : No
Forced                                   : No

Смертельная гонка 3: Ад / Death Race: Inferno

Год выпуска: 2012
Страна: США
Жанр: фантастика, боевик, триллер

Продолжительность: 01:45:05
Перевод: Дубляж
Субтитры: русские (Forced),
русские (Full),
Режиссер: Роэль Рейн
В ролях: Люк Госс (Carl Lucas), Винг Реймз (Weyland), Дэнни Трехо (Goldberg), Дюгрей Скотт (Niles York), Фредерик Колер (Lists), Танит Феникс (Katrina), Робин Шоу (14K), Хлуби Мбоя (Diabolos), Роксана Хейуорд (Prudence), Барт Фаш (Razor), Джереми Кратчли (Psycho), Юджин Хумбанйива (Nero)
Описание:
Карл Лукас по прозвищу Франкенштейн - раскаявшийся преступник, легендарный участник жестокого и кровавого тюремного соревнования под названием Смертельная гонка. Чтобы обрести долгожданную свободу, ему осталось одержать лишь одну победу, но эта гонка опасна как никогда, ведь на этот раз она проходит в пустыне!
Чтобы доказать свое превосходство, Лукасу предстоит справиться не только с безжалостными соперниками-гонщиками, но и с таинственными влиятельными врагами в смертоносной южно-африканской пустыне.
Рейтинг:

MPAA: R - Лицам до 17 лет обязательно присутствие взрослого
Качество: BDRip 720p
Формат: MKV
Видео кодек: AVC
Аудио кодек: AC3
Видео: AVC, 1280x720 (16:9), 5673 kbps, 60,000 fps, 0,103 bpp
Аудио: русский / AC3 / 5.1 / 48 kHz / 384 kbps / 16 bit ||

Автор рипа: slaventi-69

Код:

General
Unique ID                                : 202534172773201850673179894318605547530 (0x985EA9ADF3F1D8C0AF63C7912BBC380A)
Complete name                            : D:\DVD\Death Race (2008-2012)\Death.Race.3.Inferno.(2012).BDRip.720p.(60 Fps).mkv
Format                                   : Matroska
Format version                           : Version 4 / Version 2
File size                                : 4.54 GiB
Duration                                 : 1h 45mn
Overall bit rate                         : 6 181 Kbps
Movie name                               : Смертельная гонка 3: Ад / Death Race: Inferno (2012) BDRip 720p от R.G. HD-Films | 60 fps
Encoded date                             : UTC 2015-06-13 14:39:57
Writing application                      : mkvmerge v6.2.0 ('Promised Land') built on Apr 28 2013 12:22:01
Writing library                          : libebml v1.3.0 + libmatroska v1.4.0

Video
ID                                       : 1
Format                                   : AVC
Format/Info                              : Advanced Video Codec
Format profile                           : High@L4.1
Format settings, CABAC                   : Yes
Format settings, ReFrames                : 4 frames
Codec ID                                 : V_MPEG4/ISO/AVC
Duration                                 : 1h 45mn
Bit rate                                 : 5 674 Kbps
Width                                    : 1 280 pixels
Height                                   : 720 pixels
Display aspect ratio                     : 16:9
Frame rate                               : 60.000 fps
Color space                              : YUV
Chroma subsampling                       : 4:2:0
Bit depth                                : 8 bits
Scan type                                : Progressive
Bits/(Pixel*Frame)                       : 0.103
Stream size                              : 4.17 GiB (92%)
Title                                    : Death Race: Inferno (2012) BDRip 720p (60 Fps).mkv
Writing library                          : x264 core 130 r2273 b3065e6
Encoding settings                        : cabac=1 / ref=4 / deblock=1:0:0 / analyse=0x3:0x113 / me=umh / subme=9 / psy=1 / psy_rd=1.00:0.00 / mixed_ref=1 / me_range=26 / chroma_me=1 / trellis=2 / 8x8dct=1 / cqm=0 / deadzone=21,11 / fast_pskip=1 / chroma_qp_offset=-2 / threads=8 / lookahead_threads=1 / sliced_threads=0 / nr=0 / decimate=1 / interlaced=0 / bluray_compat=0 / constrained_intra=0 / bframes=4 / b_pyramid=2 / b_adapt=2 / b_bias=0 / direct=1 / weightb=1 / open_gop=0 / weightp=2 / keyint=600 / keyint_min=59 / scenecut=40 / intra_refresh=0 / rc_lookahead=40 / rc=crf / mbtree=1 / crf=17.0 / qcomp=0.60 / qpmin=0 / qpmax=69 / qpstep=4 / ip_ratio=1.40 / aq=1:1.00
Language                                 : English
Default                                  : Yes
Forced                                   : No

Audio
ID                                       : 2
Format                                   : AC-3
Format/Info                              : Audio Coding 3
Mode extension                           : CM (complete main)
Codec ID                                 : A_AC3
Duration                                 : 1h 45mn
Bit rate mode                            : Constant
Bit rate                                 : 384 Kbps
Channel(s)                               : 6 channels
Channel positions                        : Front: L C R, Side: L R, LFE
Sampling rate                            : 48.0 KHz
Bit depth                                : 16 bits
Compression mode                         : Lossy
Stream size                              : 289 MiB (6%)
Title                                    : Dub
Language                                 : Russian
Default                                  : Yes
Forced                                   : No

Text #1
ID                                       : 3
Format                                   : UTF-8
Codec ID                                 : S_TEXT/UTF8
Codec ID/Info                            : UTF-8 Plain Text
Title                                    : Forced
Language                                 : Russian
Default                                  : No
Forced                                   : No

Text #2
ID                                       : 4
Format                                   : UTF-8
Codec ID                                 : S_TEXT/UTF8
Codec ID/Info                            : UTF-8 Plain Text
Title                                    : Full
Language                                 : Russian
Default                                  : No
Forced                                   : No

pb.wtf



Скачать Смертельная гонка: Трилогия через торрент http://i70.fastpic.ru/big/2015/0614/47/370ff41ecf3589b8338363ac75b68447.jpg Скачать фильм Смертельная гонка: Трилогия через торрент бесплантно в хорошем качестве Описание: Трехкратный чемпион-гонщик Дженсен Эймс посажен в тюрьму за убийство, которого не совершал. Вместо того, чтобы выпустить его на ... 9.8 10 24
Info! Золотая раздача, скачанное не засчитывается.
Торрент: Зарегистрирован [2015-06-14 10:45] · скачан: 224 раз
Статус: √ проверено
Размер: 13.07 GB
Как cкачать? Как скачать Смертельная гонка: Трилогия через торрент | qTorrent

28-11-2019 20:33  

Отключить всю рекламу на сайте

14-06-2015 12:38 Смертельная гонка: Трилогия Скачать торрент  

slaventi-69,
Круто.

Интересно они режиссерские? :film:pb.wtf



14-06-2015 13:06 Смертельная гонка: Трилогия Скачать торрент  

Насколько я понимаю разница в 5 или 6 сек. Unrated - 2 частьpb.wtf



14-06-2015 13:37 Смертельная гонка: Трилогия Скачать торрент  

быстро однако ) респект ! пора открывать стол заказов )pb.wtf



14-06-2015 14:23 Смертельная гонка: Трилогия Скачать торрент  

Спасибо за релиз! :pleasantry: Фильмы огонь!pb.wtf



25-11-2015 19:22 Смертельная гонка: Трилогия Скачать торрент  

Да киноха не плохая ,а ещё и в 60 кеpb.wtf



    Дорогой пользователь! Огромная просьба, поблагодарите релизера, оцените раздачу и оставьте свои комментарий, если Вы скачали Смертельная гонка: Трилогия через торрент бесплатно! Внесите свою лепту в развитие PiratBit!
    Комментировать посты могут только пользователи прошедшие не сложную регистрацию
    Показать сообщения:    

    Смертельная гонка: Трилогия через торрент
    Скачать бесплатно Смертельная гонка: Трилогия
    Смертельная гонка: Трилогия скачать торрент
    Смертельная гонка: Трилогия смотреть онлайн
    Cкачать фильм Смертельная гонка: Трилогия бесплатно
    Смертельная гонка: Трилогия скачать торрент в хорошем качестве
    Смертельная гонка: Трилогия смотреть онлайн бесплатно в хорошем качестве


    Вы не можете начинать темы
    Вы не можете отвечать на сообщения
    Вы не можете редактировать свои сообщения
    Вы не можете удалять свои сообщения
    Вы не можете голосовать в опросах
    Вы не можете прикреплять файлы к сообщениям
    Вы можете скачивать файлы