Ссылка на приватное зеркало всего за 1$. Внимание количество ограничено!!!

iTunes

iTunes

iTunes

1

iTunes

iTunes

iTunes

iTunes

iTunes

30
pack

$ от Little Big

ВАЖНО

!!Акция!!

Alien_RageХит недели

RePack

Resident Evil 21

ИГРА 18+

pack

RePack

jed

!!Акция!!

Alien_Rage

RePack

fifa19

RePack

Assassins Creed: Odyssey

RePack

NEED FOR SPEED™ PAYBACK

4 сезон

9 сезон

Бесстыжие 9 сезон

Все сериалы

все сериалы на PB.wtf

RePack

FAR CRY 5
  

Кучерявая заложница / Tooken (Джон Мэллори Ашер) [2015 г., комедия, WEB-DL 720p, Любительский двухголосый][Lucky Strike] pb.wtf

Кучерявая заложница через торрент pb.wtf

Размер: 2.6 GB | Добавлен: 5 лет назад | Торрент скачан:317 раз
Скачать  

14-06-2015 19:41 Кучерявая заложница Скачать торрент  


Кучерявая заложница / Tooken
  • Год выпуска: 2015
  • Страна: США
  • Жанр: комедия
  • Продолжительность: 01:20:45

  • Перевод: Любительский (двухголосый) [Lucky Strike]
  • Субтитры: нет

  • Режиссер:
    Джон Мэллори Ашер
  • В ролях:
    Ли Тергесен, Итан Сапли, Донни Уолберг, Дженни МакКарти, Лукас Хаас, Лорен Стемайл, Рено Уилсон, Маргарет Чо, Лора Ли, Эндрю Бауэн

  • Описание:
    Кучерявая заложница - это пародия на трилогию фильмов "Заложница".
    Жизнь агента Брайана Миллерса (Ли Тергесен) полна лишений - он лишился работы в ЦРУ, уважения своей семьи, да и вообще - самой семьи, его бывшую жену планирует забрать наглый афро-американскей Деньго Тряс, а дочь... даже дочь может быть отнята и лишена (если она у нее еще есть) невинности. Но будто всего этого мало, во время покупки подарка на день рождения дочки, Брайан привлекает к себе внимание крупного китайско-американского гангстера (Маргарита Хо), главная цель которого - отнять всё и у всех! А все потому, что однажды, у кого-то была забрана очень ценная вещь.

  • Качество видео: WEB-DL 720p
  • Формат: MKV
  • Видео кодек: AVC
  • Аудио кодек: AC3
  • Видео: 1280 x 530 (2.415) at 23.976 fps AVC at 3933 Кбит/сек
  • Аудио1: 2 канала, 48,0 КГц AC-3 at 192 Кбит/сек
  • Аудио2: 6 каналов, 48,0 КГц AC-3 at 384 Кбит/сек

Общее
Уникальный идентификатор : 254308329768698341791025638478582502554 (0xBF5200B3A01141D2849EA6507399D49A)
Полное имя : D:\Torrents\Tooken.2015.L2.WEB-DL.720p.mkv
Формат : Matroska
Версия формата : Version 4 / Version 2
Размер файла : 2,60 Гбайт
Продолжительность : 1 ч. 20 м.
Общий поток : 4600 Кбит/сек
Дата кодирования : UTC 2015-06-14 18:19:40
Программа кодирования : mkvmerge v6.1.0 ('Old Devil') built on Mar 4 2013 09:10:42
Библиотека кодирования : libebml v1.3.0 + libmatroska v1.4.0

Видео
Идентификатор : 1
Формат : AVC
Формат/Информация : Advanced Video Codec
Профиль формата : Main@L3.1
Параметр CABAC формата : Нет
Параметр ReFrames формата : 2 кадра
Идентификатор кодека : V_MPEG4/ISO/AVC
Продолжительность : 1 ч. 20 м.
Битрейт : 3933 Кбит/сек
Ширина : 1280 пикселей
Высота : 530 пикселей
Соотношение сторон : 2,40:1
Режим частоты кадров : Постоянный
Частота кадров : 23,976 кадра/сек
Цветовое пространство : YUV
Субдискретизация насыщенности : 4:2:0
Битовая глубина : 8 бит
Тип развёртки : Прогрессивная
Бит/(Пиксели*Кадры) : 0.242
Размер потока : 2,22 Гбайт (85%)
Язык : English
Default : Да
Forced : Нет
Основные цвета : BT.709
Характеристики трансфера : BT.709
Коэффициенты матрицы : BT.709

Аудио #1
Идентификатор : 2
Формат : AC-3
Формат/Информация : Audio Coding 3
Расширение режима : CM (complete main)
Параметр Endianness формата : Big
Идентификатор кодека : A_AC3
Продолжительность : 1 ч. 20 м.
Вид битрейта : Постоянный
Битрейт : 192 Кбит/сек
Каналы : 2 канала
Расположение каналов : Front: L R
Частота : 48,0 КГц
Битовая глубина : 16 бит
Метод сжатия : С потерями
Размер потока : 111 Мбайт (4%)
Язык : Russian
Default : Да
Forced : Нет

Аудио #2
Идентификатор : 3
Формат : AC-3
Формат/Информация : Audio Coding 3
Расширение режима : CM (complete main)
Параметр Endianness формата : Big
Идентификатор кодека : A_AC3
Продолжительность : 1 ч. 20 м.
Вид битрейта : Постоянный
Битрейт : 384 Кбит/сек
Каналы : 6 каналов
Расположение каналов : Front: L C R, Side: L R, LFE
Частота : 48,0 КГц
Битовая глубина : 16 бит
Метод сжатия : С потерями
Размер потока : 222 Мбайт (8%)
Язык : English
Default : Нет
Forced : Нет

Меню
00:00:00.000 : en:1
00:10:14.000 : en:2
00:20:30.000 : en:3
00:31:32.000 : en:4
00:39:22.000 : en:5
00:52:00.000 : en:6
01:02:38.000 : en:7
01:11:42.000 : en:8
01:12:34.000 : en:9[/code]
скриншот   скриншот   скриншот   скриншот  
pb.wtf



Скачать Кучерявая заложница через торрент http://pic1.kartinco.top/images/10/2mjak.jpg Скачать фильм Кучерявая заложница через торрент бесплантно в хорошем качестве Описание: Кучерявая заложница - это пародия на трилогию фильмов "Заложница".Жизнь агента Брайана Миллерса (Ли Тергесен) полна лишений - он ... 8.5 10 10
Info! Золотая раздача, скачанное не засчитывается.
Торрент: Зарегистрирован [2015-06-14 19:41] · скачан: 317 раз
Статус: √ проверено
Размер: 2.6 GB
Как cкачать? Как скачать Кучерявая заложница через торрент | qTorrent

% Раздел Тема Автор DL S | L
Фильмы без перевода [ 2.49 GB ] Кучерявая заложница / Tooken [2015 WEB-DL 720p] killermax2013 Скачать
1 | 0

28-11-2019 20:33  

Отключить всю рекламу на сайте

15-06-2015 17:33 Кучерявая заложница Скачать торрент  

не смешно(pb.wtf



15-06-2015 21:48 Кучерявая заложница Скачать торрент  

primys писал(а):

не смешно(

не смешно это когда 4 сообщения за 4,5 года у тебя)))pb.wtf



    Дорогой пользователь! Огромная просьба, поблагодарите релизера, оцените раздачу и оставьте свои комментарий, если Вы скачали Кучерявая заложница через торрент бесплатно! Внесите свою лепту в развитие PiratBit!
    Комментировать посты могут только пользователи прошедшие не сложную регистрацию
    Показать сообщения:    

    Кучерявая заложница через торрент
    Скачать бесплатно Кучерявая заложница
    Кучерявая заложница скачать торрент
    Кучерявая заложница смотреть онлайн
    Cкачать фильм Кучерявая заложница бесплатно
    Кучерявая заложница скачать торрент в хорошем качестве
    Кучерявая заложница смотреть онлайн бесплатно в хорошем качестве


    Вы не можете начинать темы
    Вы не можете отвечать на сообщения
    Вы не можете редактировать свои сообщения
    Вы не можете удалять свои сообщения
    Вы не можете голосовать в опросах
    Вы не можете прикреплять файлы к сообщениям
    Вы можете скачивать файлы