Anonymous, добрый день, присоединяйтесь к нам в Telegram!, здесь всегда актуальный адрес сайта, оперативная поддержка и многое другое!

>

5.6

iTunes

7.4

iTunes

5.7

MVO

1

7.7

1 сезон

6.8

iTunes

7.3

1 сезон

13

6.7

1 сезон

8.3

RePack

30

ULTIMATE

pack

9.9

Лицензия

ВАЖНО

ИГРА 18+

pack

7.3

RePack

MK11

7.7

RePack

jed

7.8

RePack

fifa19

8.5

RePack

RDR2

RePack

NEED FOR SPEED™ PAYBACK

4 сезон

9 сезон

Бесстыжие 9 сезон

Все сериалы

все сериалы на PB.wtf

RePack

FAR CRY 5

Anonymous, добрый день, мы катастрофически не успеваем собрать деньги на оплату серверов, помогите нам пожалуйста 5,10,15р., для нас важна любая помощь . В качестве благодарности мы отключим Вам всю рекламу на сайте (укажите свой ник в строку Ваше имя)!

×
  
Magnet ссылка

Адреналин: Дилогия / Crank: Dilogy (Марк Невелдин, Брайан Тэйлор) [2006, 2009, США, Боевик, триллер, криминал, BDRip 720p,DUB] 60fps от R.G. HD-Films pb.wtf

Адреналин: Дилогия через торрент pb.wtf

Размер: 9.15 GB | Добавлен: 6 лет 3 мес. назад | Торрент скачан:126 раз
Смотреть онлайн Адреналин: Дилогия | Скачать    Ребята, помогите собрать деньги на оплату серверов!!!

16-06-2015 12:54 Адреналин: Дилогия Скачать торрент  

Адреналин: Дилогия / Crank: Dilogy
Адреналин / Crank

Год выпуска: 2006
Страна: США
Жанр: боевик, триллер, криминал

Продолжительность: 01:27:37
Перевод: Дубляж
Субтитры: русские (Русские (полные)),
Режиссер: Марк Невелдайн , Брайан Тейлор
В ролях: Джейсон Стэйтем (Chev Chelios), Эми Смарт (Eve), Хосе Пабло Кантильо (Verona), Эфрен Рамирез (Kaylo), Дуайт Йоакам (Doc Miles), Карлос Санс (Carlito), Рено Уилсон (Orlando), Эди Гатеги (Haitian Cabbie), Гленн Хоуертон (Doctor), Джей Ксала (Alex), Кион Янг (Don Kim), Валери Рэй Миллер (Chocolate)
Описание:
Наемный убийца Чев узнает, что недоброжелатели отравили его редким китайским ядом и отрава начнет действовать немедленно, как только пульс перестанет биться ниже определенной отметки.
И теперь Чеву нужно успеть сделать все свои дела, попробовать раздобыть противоядие и отомстить своим отравителям в прямом смысле слова впопыхах - стараясь создавать вокруг себя как можно более напряженную обстановку и не расслабляться ни на секунду.
Рейтинг:

MPAA: R - Лицам до 17 лет обязательно присутствие взрослого
Качество: BDRip 720p
Формат: MKV
Видео кодек: AVC
Аудио кодек:AC3
Видео: AVC, 1280x720 (16:9), 5976 kbps, 60,000 fps, 0,108 bpp
Аудио: русский / AC3 / 5.1 / 48 kHz / 384 kbps / 16 bit ||
Навигация по главам: есть

Код:

General
Unique ID                                : 198085208582285936369508672468596643544 (0x9505D2CF3FF58918BE491D5E32DD56D8)
Complete name                            : E:\Crank Diologia\Crank.(2006).BDRip.720p.(60 Fps).mkv
Format                                   : Matroska
Format version                           : Version 4 / Version 2
File size                                : 3.97 GiB
Duration                                 : 1h 27mn
Overall bit rate                         : 6 490 Kbps
Movie name                               : Адреналин / Crank (2006) BDRip 720p от R.G. HD-Films | 60 fps
Encoded date                             : UTC 2015-06-15 05:50:19
Writing application                      : mkvmerge v6.2.0 ('Promised Land') built on Apr 28 2013 12:22:01
Writing library                          : libebml v1.3.0 + libmatroska v1.4.0

Video
ID                                       : 1
Format                                   : AVC
Format/Info                              : Advanced Video Codec
Format profile                           : High@L4.1
Format settings, CABAC                   : Yes
Format settings, ReFrames                : 4 frames
Codec ID                                 : V_MPEG4/ISO/AVC
Duration                                 : 1h 27mn
Bit rate                                 : 5 977 Kbps
Width                                    : 1 280 pixels
Height                                   : 720 pixels
Display aspect ratio                     : 16:9
Frame rate                               : 60.000 fps
Color space                              : YUV
Chroma subsampling                       : 4:2:0
Bit depth                                : 8 bits
Scan type                                : Progressive
Bits/(Pixel*Frame)                       : 0.108
Stream size                              : 3.66 GiB (92%)
Title                                    : Crank (2006) BDRip 720p (60 Fps).mkv
Writing library                          : x264 core 130 r2273 b3065e6
Encoding settings                        : cabac=1 / ref=4 / deblock=1:0:0 / analyse=0x3:0x113 / me=umh / subme=9 / psy=1 / psy_rd=1.00:0.00 / mixed_ref=1 / me_range=24 / chroma_me=1 / trellis=2 / 8x8dct=1 / cqm=0 / deadzone=21,11 / fast_pskip=1 / chroma_qp_offset=-2 / threads=8 / lookahead_threads=1 / sliced_threads=0 / nr=0 / decimate=1 / interlaced=0 / bluray_compat=0 / constrained_intra=0 / bframes=4 / b_pyramid=2 / b_adapt=2 / b_bias=0 / direct=1 / weightb=1 / open_gop=0 / weightp=2 / keyint=600 / keyint_min=59 / scenecut=40 / intra_refresh=0 / rc_lookahead=40 / rc=crf / mbtree=1 / crf=17.0 / qcomp=0.60 / qpmin=0 / qpmax=69 / qpstep=4 / ip_ratio=1.40 / aq=1:1.00
Language                                 : English
Default                                  : Yes
Forced                                   : No

Audio
ID                                       : 2
Format                                   : AC-3
Format/Info                              : Audio Coding 3
Mode extension                           : CM (complete main)
Codec ID                                 : A_AC3
Duration                                 : 1h 27mn
Bit rate mode                            : Constant
Bit rate                                 : 384 Kbps
Channel(s)                               : 6 channels
Channel positions                        : Front: L C R, Side: L R, LFE
Sampling rate                            : 48.0 KHz
Bit depth                                : 16 bits
Compression mode                         : Lossy
Stream size                              : 241 MiB (6%)
Title                                    : Dub
Language                                 : Russian
Default                                  : Yes
Forced                                   : No

Text
ID                                       : 3
Format                                   : UTF-8
Codec ID                                 : S_TEXT/UTF8
Codec ID/Info                            : UTF-8 Plain Text
Title                                    : Русские (полные)
Language                                 : Russian
Default                                  : No
Forced                                   : No

Menu
00:00:00.000                             : :Chapter 01
00:06:46.114                             : :Chapter 02
00:13:48.077                             : :Chapter 03
00:17:12.281                             : :Chapter 04
00:21:58.608                             : :Chapter 05
00:26:43.935                             : :Chapter 06
00:35:02.683                             : :Chapter 07
00:39:16.354                             : :Chapter 08
00:46:21.195                             : :Chapter 09
00:53:55.232                             : :Chapter 10
01:01:00.573                             : :Chapter 11
01:06:40.287                             : :Chapter 12
01:11:48.721                             : :Chapter 13
01:15:10.756                             : :Chapter 14
01:17:17.299                             : :Chapter 15
01:20:10.722                             : :Chapter 16

Адреналин: Высокое напряжение / Crank: High Voltage

Год выпуска: 2009
Страна: США
Жанр: криминал, боевик, комедия, фэнтези

Продолжительность: 01:35:49
Перевод: Дубляж
Субтитры: русские (Русские (полные)),
Режиссер: Марк Невелдайн , Брайан Тейлор
В ролях: Джейсон Стэйтем (Chev Chelios), Эми Смарт (Eve), Дуайт Йоакам (Doc Miles), Бай Лин (Ria), Клифтон Коллинз мл. (El Huron), Эфрен Рамирез (Venus), Арт Хсю (Johnny Vang), Хосе Пабло Кантильо (Ricky Verona), Джозеф Джулиан Сория (Chico), Дэвид Кэрредин (Poon Dong), Кион Янг (Don Kim), Джуланн Чиди Хилл (Dark Chocolate)
Описание:
Он умер, но обещал вернуться! Не чудом, а благодаря современным медицинским технологиям Чев Челиос получает новое сердце и новый шанс отомстить своим врагам. Теперь для постоянной подзарядки ему требуется электрический разряд мощностью не меньше, чем у автомобильного аккумулятора.
Рейтинг:

MPAA: R - Лицам до 17 лет обязательно присутствие взрослого
Качество: BDRip 720p
Формат: MKV
Видео кодек: AVC
Аудио кодек:AC3
Видео: AVC, 1280x688 (1.860), 7202 kbps, 60,000 fps, 0,136 bpp
Аудио: русский / AC3 / 5.1 / 48 kHz / 384 kbps / 16 bit ||
Навигация по главам: есть

Код:

General
Unique ID                                : 205791359946360361927423714339142308763 (0x9AD1F967E736F7F98A3F54F5D98D139B)
Complete name                            : E:\Crank Diologia\Crank_High.Voltage.(2009).BDRip.720p.(60 Fps).mkv
Format                                   : Matroska
Format version                           : Version 4 / Version 2
File size                                : 5.18 GiB
Duration                                 : 1h 35mn
Overall bit rate                         : 7 741 Kbps
Movie name                               : Адреналин: Высокое напряжение / Crank: High Voltage (2009) BDRip 720p от R.G. HD-Films | 60 fps
Encoded date                             : UTC 2015-06-15 05:56:26
Writing application                      : mkvmerge v6.2.0 ('Promised Land') built on Apr 28 2013 12:22:01
Writing library                          : libebml v1.3.0 + libmatroska v1.4.0

Video
ID                                       : 1
Format                                   : AVC
Format/Info                              : Advanced Video Codec
Format profile                           : High@L4.1
Format settings, CABAC                   : Yes
Format settings, ReFrames                : 4 frames
Codec ID                                 : V_MPEG4/ISO/AVC
Duration                                 : 1h 35mn
Bit rate                                 : 7 203 Kbps
Width                                    : 1 280 pixels
Height                                   : 688 pixels
Display aspect ratio                     : 1.860
Frame rate                               : 60.000 fps
Color space                              : YUV
Chroma subsampling                       : 4:2:0
Bit depth                                : 8 bits
Scan type                                : Progressive
Bits/(Pixel*Frame)                       : 0.136
Stream size                              : 4.82 GiB (93%)
Title                                    : Crank: High Voltage (2009) BDRip 720p (60 Fps).mkv
Writing library                          : x264 core 130 r2273 b3065e6
Encoding settings                        : cabac=1 / ref=4 / deblock=1:0:0 / analyse=0x3:0x113 / me=umh / subme=9 / psy=1 / psy_rd=1.00:0.00 / mixed_ref=1 / me_range=24 / chroma_me=1 / trellis=2 / 8x8dct=1 / cqm=0 / deadzone=21,11 / fast_pskip=1 / chroma_qp_offset=-2 / threads=8 / lookahead_threads=1 / sliced_threads=0 / nr=0 / decimate=1 / interlaced=0 / bluray_compat=0 / constrained_intra=0 / bframes=4 / b_pyramid=2 / b_adapt=2 / b_bias=0 / direct=1 / weightb=1 / open_gop=0 / weightp=2 / keyint=600 / keyint_min=59 / scenecut=40 / intra_refresh=0 / rc_lookahead=40 / rc=crf / mbtree=1 / crf=18.0 / qcomp=0.60 / qpmin=0 / qpmax=69 / qpstep=4 / ip_ratio=1.40 / aq=1:1.00
Language                                 : English
Default                                  : Yes
Forced                                   : No

Audio
ID                                       : 2
Format                                   : AC-3
Format/Info                              : Audio Coding 3
Mode extension                           : CM (complete main)
Codec ID                                 : A_AC3
Duration                                 : 1h 35mn
Bit rate mode                            : Constant
Bit rate                                 : 384 Kbps
Channel(s)                               : 6 channels
Channel positions                        : Front: L C R, Side: L R, LFE
Sampling rate                            : 48.0 KHz
Bit depth                                : 16 bits
Compression mode                         : Lossy
Stream size                              : 263 MiB (5%)
Title                                    : Dub
Language                                 : Russian
Default                                  : Yes
Forced                                   : No

Text
ID                                       : 3
Format                                   : UTF-8
Codec ID                                 : S_TEXT/UTF8
Codec ID/Info                            : UTF-8 Plain Text
Title                                    : Русские (полные)
Language                                 : Russian
Default                                  : No
Forced                                   : No

Menu
00:00:00.000                             : :Chapter 01
00:05:55.897                             : :Chapter 02
00:09:38.494                             : :Chapter 03
00:15:22.922                             : :Chapter 04
00:20:45.452                             : :Chapter 05
00:25:21.978                             : :Chapter 06
00:29:07.620                             : :Chapter 07
00:36:20.720                             : :Chapter 08
00:42:15.658                             : :Chapter 09
00:47:47.114                             : :Chapter 10
00:50:10.090                             : :Chapter 11
00:54:15.043                             : :Chapter 12
01:01:00.740                             : :Chapter 13
01:06:31.988                             : :Chapter 14
01:15:19.431                             : :Chapter 15
01:20:22.275                             : :Chapter 16

Автор рипа:slaventi-69 Просьба к переливающим на другие сайты, в оформлении указывайте пожалуйста авторство рипа slaventi-69pb.wtf



Скачать Адреналин: Дилогия через торрент http://i69.fastpic.ru/big/2015/0616/c0/ee5c3b23e230d8e820a4dd01e4a8e5c0.jpg Скачать, смотреть онлайн Адреналин: Дилогия бесплантно в хорошем качестве Описание: Наемный убийца Чев узнает, что недоброжелатели отравили его редким китайским ядом и отрава начнет действовать немедленно, как ... 9.9 10 30
Info! Золотая раздача, скачанное не засчитывается.
Торрент: Зарегистрирован [2015-06-16 12:57] · скачан: 126 раз
Статус: √ проверено
Размер: 9.15 GB
Как cкачать? Как скачать Адреналин: Дилогия через торрент | UTorrent



Последний раз редактировалось: slaventi-69 (2015-06-16 18:27), всего редактировалось 1 раз

28-11-2019 20:33  

Отключить всю рекламу на сайте

16-06-2015 13:08 Адреналин: Дилогия Скачать торрент  

дождался ) респект !pb.wtf



16-06-2015 13:59 Адреналин: Дилогия Скачать торрент  

yes вторая часть уматовая!!! Спасибо за релиз!pb.wtf



16-06-2015 14:06 Адреналин: Дилогия Скачать торрент  

Всегда - Пожалуйста. Смотрите в удовольствие.pb.wtf



16-06-2015 14:28 Адреналин: Дилогия Скачать торрент  

slaventi-69 писал(а):

Всегда - Пожалуйста. Смотрите в удовольствие.

скорости плизpb.wtf



16-06-2015 14:30 Адреналин: Дилогия Скачать торрент  

Одназначно в золото!
Еще раз СПАСИБО!!!pb.wtf



16-06-2015 14:30 Адреналин: Дилогия Скачать торрент  

дайте скорости
pb.wtf



16-06-2015 14:34 Адреналин: Дилогия Скачать торрент  

у всех со скоростью беда?pb.wtf



16-06-2015 14:46 Адреналин: Дилогия Скачать торрент  

Наверное у всех, со скоростью действительно какая то лажа. Но это уже не от меня зависит, по области 96 нас. пунктов остались без света - из за дождей.
Может прорвет, надеюсь.pb.wtf



17-06-2015 20:03 Адреналин: Дилогия Скачать торрент  

не знаю - рвануло махом, отсмотрел. Сейчас на стороннем трекере качнул саундрек ко второй - неофициальный, маленький. Suck my mother fucking Dick радует соседушек и повышает настроение!pb.wtf



28-07-2016 07:24 Адреналин: Дилогия Скачать торрент  

Кто нибудь раздаст?pb.wtf



    Дорогой пользователь! Огромная просьба, поблагодарите релизера, оцените раздачу и оставьте свои комментарий, если Вы скачали Адреналин: Дилогия через торрент бесплатно!
    Комментировать посты могут только пользователи прошедшие не сложную регистрацию
    Показать сообщения:    

    Адреналин: Дилогия через торрент
    Скачать бесплатно Адреналин: Дилогия
    Адреналин: Дилогия скачать торрент
    Адреналин: Дилогия смотреть онлайн
    Cкачать фильм Адреналин: Дилогия бесплатно
    Адреналин: Дилогия скачать торрент в хорошем качестве
    Адреналин: Дилогия смотреть онлайн бесплатно в хорошем качестве


    Вы не можете начинать темы
    Вы не можете отвечать на сообщения
    Вы не можете редактировать свои сообщения
    Вы не можете удалять свои сообщения
    Вы не можете голосовать в опросах
    Вы не можете прикреплять файлы к сообщениям
    Вы можете скачивать файлы