Ссылка на приватное зеркало нашего сайта всего за 1$. Внимание количество ограничено!!!

2 сезон

iTunes

1 сезон

1

2 сезон

2 сезон

iTunes

1 сезон

RePack

30

Новинка

ВАЖНО

ИГРА 18+

pack

RePack

MK11
pack

Забери бонус

RePack

jed

!!Акция!!

Alien_Rage

RePack

fifa19

RePack

Assassins Creed: Odyssey

RePack

NEED FOR SPEED™ PAYBACK

4 сезон

9 сезон

Бесстыжие 9 сезон

Все сериалы

все сериалы на PB.wtf

RePack

FAR CRY 5
  

Вызов / Непокорная Земля / Defiance / Сезон: 3 / Серии 1-13 из 13 (Майкл Нанкин / Michael Nankin, Аллен Крокер / Allan Kroeker, Энди Волк / Andy Wolk) [2015, США, фантастика, боевик, драма, WEB-DL 1080p] MVO [BaibaKo] pb.wtf

Вызов через торрент pb.wtf

Размер: 22.29 GB | Добавлен: 5 лет 2 мес. назад | Торрент скачан:13 раз
Скачать  

17-06-2015 02:37 Вызов Скачать торрент  

Вызов / Непокорная Земля / Defiance
«Новая Земля. Новые правила»


  • Год выпуска: 2015
  • Страна: США
  • Жанр: фантастика, боевик, драма
  • Продолжительность: 01:23:10 (Серия)
  • Перевод: Профессиональный многоголосый закадровый [BaibaKo]

  • Режиссер: Майкл Нанкин / Michael Nankin, Аллен Крокер / Allan Kroeker, Энди Волк / Andy Wolk
  • В ролях:

    Грант Боулер (Chief Lawkeeper Joshua Nolan), Джули Бенц (Mayor Amanda Rosewater), Стефани Леонидас (Irisa), Тони Кёрран (Datak Tarr), Джейми Мюррэй (Stahma Tarr), Грэм Грин (Rafe McCawley), Миа Киршнер (Kenya Rosewater), Дьюшэйн Уильямс (Tommy LaSalle), Николь Муньос (Christie McCawley), Джастин Рэйн (Quentin McCawley), Джесси Рат (Alak Tarr), Финола Флэнаган (Nicky)

  • Описание:
    Сюжет сериала рассказывает о мире, в котором люди и инопланетяне живут вместе на планете, разоренной десятилетней войной и терраморфированной при помощи инопланетных технологий.
  • Рейтинг:



  • Качество: WEB-DL 1080p
  • Формат: :MKV
  • Видео кодек: AVC
  • Аудио кодек: AC3
  • Видео: 1920x1080 (16:9), 4913 kbps, 23,976 fps, 0,099 bpp
  • Аудио №1: русский / 5.1 / 48 kHz / 384 kbps / 16 bit |[BaibaKo]|
  • Аудио №2: английский / 5.1 / 48 kHz / 384 kbps / 16 bit
  • Релиз от: GEKADOL

    Код:

    Внимание! Раздача ведётся путём добавления новых серий; при каждом добавлении создаётся новый торрент. Чтобы начать докачку новой серии, пользователям необходимо сделать следующее:
    (1) остановить скачивание,
    (2) удалить старый торрент у себя из клиента (старые серии удалять не надо),
    (3) скачать новый торрент и запустить его у себя в клиенте вместо старого, при этом указать клиенту путь в старую папку куда и должно происходить скачивание новых серий.
    Ваш клиент при этом должен произвести хеширование (проверку) старой папки (если не производит сам - помогите ему сделать это), и будет докачивать только те серии которых у вас ещё нет. Старые серии при этом не удаляются, а продолжают раздаваться!
    Eсли вы уже удалили старые серии, то предотвратить повторную закачку старых серий можно, отжав галочку в соответствующих местах при запуске нового торрента. По возможности, желательно не удалять старые серии как можно дольше чтобы релизёр не столько продолжал раздавать старые серии, а смог сконцентрироваться на новых.


    Код:

    General
    Unique ID                                : 193725163298807788529090568632656935539 (0x91BE1BFAF19B245AB510B4848A733A73)
    Complete name                            : F:\Defiance.S03.1080p.Baibako.tv\Defiance.s03e01-02.HD1080p.WEB-DL.Rus.Eng.BaibaKo.tv.mkv
    Format                                   : Matroska
    Format version                           : Version 4 / Version 2
    File size                                : 3.37 GiB
    Duration                                 : 1h 23mn
    Overall bit rate                         : 5 797 Kbps
    Encoded date                             : UTC 2015-06-16 18:44:41
    Writing application                      : mkvmerge v7.9.0 ('Birds') 64bit
    Writing library                          : libebml v1.3.1 + libmatroska v1.4.2
    DURATION                                 : 01:23:10.080000000
    NUMBER_OF_FRAMES                         : 155940
    NUMBER_OF_BYTES                          : 239523840
    _STATISTICS_WRITING_APP                  : mkvmerge v7.9.0 ('Birds') 64bit
    _STATISTICS_WRITING_DATE_UTC             : 2015-06-16 18:44:41
    _STATISTICS_TAGS                         : BPS DURATION NUMBER_OF_FRAMES NUMBER_OF_BYTES

    Video
    ID                                       : 1
    Format                                   : AVC
    Format/Info                              : Advanced Video Codec
    Format profile                           : High@L4.0
    Format settings, CABAC                   : Yes
    Format settings, ReFrames                : 4 frames
    Codec ID                                 : V_MPEG4/ISO/AVC
    Duration                                 : 1h 23mn
    Bit rate                                 : 4 914 Kbps
    Width                                    : 1 920 pixels
    Height                                   : 1 080 pixels
    Display aspect ratio                     : 16:9
    Frame rate                               : 23.976 fps
    Color space                              : YUV
    Chroma subsampling                       : 4:2:0
    Bit depth                                : 8 bits
    Scan type                                : Progressive
    Bits/(Pixel*Frame)                       : 0.099
    Stream size                              : 2.85 GiB (85%)
    Language                                 : English
    Default                                  : Yes
    Forced                                   : No
    Color primaries                          : BT.709-5, BT.1361, IEC 61966-2-4, SMPTE RP177
    Transfer characteristics                 : BT.709-5, BT.1361
    Matrix coefficients                      : BT.709-5, BT.1361, IEC 61966-2-4 709, SMPTE RP177

    Audio #1
    ID                                       : 2
    Format                                   : AC-3
    Format/Info                              : Audio Coding 3
    Mode extension                           : CM (complete main)
    Codec ID                                 : A_AC3
    Duration                                 : 1h 23mn
    Bit rate mode                            : Constant
    Bit rate                                 : 384 Kbps
    Channel(s)                               : 6 channels
    Channel positions                        : Front: L C R, Side: L R, LFE
    Sampling rate                            : 48.0 KHz
    Bit depth                                : 16 bits
    Compression mode                         : Lossy
    Stream size                              : 228 MiB (7%)
    Language                                 : Russian
    Default                                  : Yes
    Forced                                   : No

    Audio #2
    ID                                       : 3
    Format                                   : AC-3
    Format/Info                              : Audio Coding 3
    Mode extension                           : CM (complete main)
    Codec ID                                 : A_AC3
    Duration                                 : 1h 23mn
    Bit rate mode                            : Constant
    Bit rate                                 : 384 Kbps
    Channel(s)                               : 6 channels
    Channel positions                        : Front: L C R, Side: L R, LFE
    Sampling rate                            : 48.0 KHz
    Bit depth                                : 16 bits
    Compression mode                         : Lossy
    Stream size                              : 228 MiB (7%)
    Language                                 : English
    Default                                  : No
    Forced                                   : No


    Скриншоты:
    скриншот   скриншот   скриншот   скриншот   скриншот  
    скриншот  

    Раздача ведётся путём добавления новых серий. Добавлена 13 серия (31.08.2015).Просьба перекачать торрент файл.

    pb.wtf



  • Скачать Вызов через торрент http://i2.imageban.ru/out/2015/06/17/883f3c12e608bef8a33f313c88f2cbbe.jpg Скачать фильм Вызов через торрент бесплантно в хорошем качестве Описание: Сюжет сериала рассказывает о мире, в котором люди и инопланетяне живут вместе на планете, разоренной десятилетней войной и ... 9.2 10 13
    Info! Золотая раздача, скачанное не засчитывается.
    Торрент: Зарегистрирован [2015-08-31 01:24] · скачан: 13 раз
    Статус: √ проверено
    Размер: 22.29 GB
    Как cкачать? Как скачать Вызов через торрент | qTorrent

    % Раздел Тема Автор DL S | L
    Зарубежные сериалы [ 16.26 GB ] Непокорная Земля / Вызов / Defiance / Сезон: 3 / Серии: 1-13 из 13 [2015 WEB-DLRip 720p] MVO 10oN Скачать
    1 | 0
    Зарубежные сериалы [ 9.45 GB ] Вызов / Непокорная Земля / Defiance / Сезон: 3 / Серии 1-13 из 13 [2015 WEB-DLRip-AVC] MVO [BaibaKo] GEKADOL Скачать
    1 | 0
    Зарубежные сериалы [ 5.89 GB ] Непокорная Земля / Вызов / Defiance / Сезон: 1 / Серии: 1-3 из 12 [2013 WEB-DLRip 720р] LostFilm diletant Скачать
    1 | 0


    Последний раз редактировалось: GEKADOL (2015-08-31 01:24), всего редактировалось 14 раз(а)

    28-11-2019 20:33  

    Отключить всю рекламу на сайте

    17-06-2015 12:35 Вызов Скачать торрент  

    Серий же 13,а не 8 :declare:pb.wtf



    21-06-2015 03:12 Вызов Скачать торрент  

    ˜”°•...•°”˜ писал(а):

    Серий же 13,а не 8 :declare:

    Конечно)) Спасибо) pb.wtf



    01-07-2015 13:27 Вызов Скачать торрент  

    GEKADOL писал(а):

    GEKADOL

    Спасибо БОЛЬШОЕ за все,что ты делаешь!!!!!!!! pb.wtf



    07-07-2015 13:34 Вызов Скачать торрент  

    ˜”°•...•°”˜ писал(а):

    GEKADOL писал(а):

    GEKADOL

    Спасибо БОЛЬШОЕ за все,что ты делаешь!!!!!!!!

    Вам спасибо!!!!! pb.wtf



    07-07-2015 16:28 Вызов Скачать торрент  

    две актрисы из декстераpb.wtf



    17-08-2015 04:41 Вызов Скачать торрент  

    как? КАК ЭТО продлили на третий сезон??! Гекадол без предъяв разумеется, просто в башке не укладывается. непонятки пстоpb.wtf



    27-09-2015 22:00 Вызов Скачать торрент  

    спасибо)) забираю)) немного сериал напомнил о "Светлячке"...тож надо скачать)))pb.wtf



      Дорогой пользователь! Огромная просьба, поблагодарите релизера, оцените раздачу и оставьте свои комментарий, если Вы скачали Вызов через торрент бесплатно! Внесите свою лепту в развитие PiratBit!
      Комментировать посты могут только пользователи прошедшие не сложную регистрацию
      Показать сообщения:    

      Вызов через торрент
      Скачать бесплатно Вызов
      Вызов скачать торрент
      Вызов смотреть онлайн
      Cкачать фильм Вызов бесплатно
      Вызов скачать торрент в хорошем качестве
      Вызов смотреть онлайн бесплатно в хорошем качестве


      Вы не можете начинать темы
      Вы не можете отвечать на сообщения
      Вы не можете редактировать свои сообщения
      Вы не можете удалять свои сообщения
      Вы не можете голосовать в опросах
      Вы не можете прикреплять файлы к сообщениям
      Вы можете скачивать файлы