Anonymous, доброй ночи, присоединяйтесь к нам в Telegram!, здесь всегда актуальный адрес сайта, оперативная поддержка и многое другое!

>

5.5

iTunes

7.4

iTunes

7.9

iTunes

1

7.7

1 сезон

6.8

iTunes

7.3

1 сезон

13

6.7

1 сезон

8.3

RePack

30

ULTIMATE

pack

9.9

Лицензия

ВАЖНО

ИГРА 18+

pack

7.3

RePack

MK11

7.7

RePack

jed

7.8

RePack

fifa19

8.5

RePack

RDR2

RePack

NEED FOR SPEED™ PAYBACK

4 сезон

9 сезон

Бесстыжие 9 сезон

Все сериалы

все сериалы на PB.wtf

RePack

FAR CRY 5

Anonymous, доброй ночи, мы катастрофически не успеваем собрать деньги на оплату серверов, помогите нам пожалуйста 5,10,15р., для нас важна любая помощь . В качестве благодарности мы отключим Вам всю рекламу на сайте (укажите свой ник в строку Ваше имя)!

×
  
Magnet ссылка

Тор: Дилогия / Thor: Dilogy (Кеннет Брана, Джосс Уидон, Алан Тейлор) [2011, 2013, США, Фэнтези, боевик, приключения, BDRip 720p,DUB] 60fps от R.G. HD-Films pb.wtf

Тор: Дилогия через торрент pb.wtf

Размер: 8.34 GB | Добавлен: 6 лет 4 мес. назад | Торрент скачан:344 раза
Смотреть онлайн Тор: Дилогия | Скачать    Ребята, помогите собрать деньги на оплату серверов!!!

17-06-2015 10:29 Тор: Дилогия Скачать торрент  

Тор: Дилогия / Thor: Dilogy
Тор / Thor
Год выпуска: 2011
Страна: США
Жанр: фэнтези, боевик, приключения

Продолжительность: 01:54:49
Перевод: Дубляж
Субтитры: русские (Full),
украинские (Full),
Режиссер: Кеннет Брана
В ролях: Крис Хемсворт (Thor), Натали Портман (Jane Foster), Том Хиддлстон (Loki), Энтони Хопкинс (Odin), Стеллан Скарсгард (Erik Selvig), Кэт Деннингс (Darcy Lewis), Кларк Грегг (Agent Coulson), Колм Фиор (King Laufey), Идрис Эльба (Heimdall), Рэй Стивенсон (Volstagg), Таданобу Асано (Hogun), Джошуа Даллас (Fandral)
Описание:
Эпическое приключение происходит как на нашей планете Земля, так и в королевстве богов Асгарде. В центре истории - Могучий Тор, сильный, но высокомерный воин, чьи безрассудные поступки возрождают древнюю войну в Асгарде. Тора отправляют в ссылку на Землю, лишают сил и заставляют жить среди обычных людей в качестве наказания...
Рейтинг:

Качество: BDRip 720p / 60fps
Формат: MKV
Видео кодек: AVC
Аудио кодек:AC3
Видео: AVC, 1280x544 (2.35:1), 4477 kbps, 60,000 fps, 0,107 bpp
Аудио: русский / AC3 / 5.1 / 48 kHz / 384 kbps / 16 bit ||
Навигация по главам: есть

Релиз:
x264 [info]: frame I:2101 Avg QP:14.15 size:112952
x264 [info]: frame P:106812 Avg QP:16.77 size: 22414
x264 [info]: frame B:304113 Avg QP:21.12 size: 4295
x264 [info]: consecutive B-frames: 3.5% 3.4% 12.6% 18.2% 62.4%


General
Unique ID : 217221236204651035224151876093452881596 (0xA36B49D068F927DF802842B6CA820EBC)
Complete name : E:\THOR DILOGIA\Thor.(2011).BDRip.720p.(60 Fps).mkv
Format : Matroska
Format version : Version 4 / Version 2
File size : 3.98 GiB
Duration : 1h 54mn
Overall bit rate : 4 960 Kbps
Movie name : Тор / Thor (2011) BDRip 720p от R.G. HD-Films | 60 fps
Encoded date : UTC 2015-06-16 08:29:14
Writing application : mkvmerge v6.2.0 ('Promised Land') built on Apr 28 2013 12:22:01
Writing library : libebml v1.3.0 + libmatroska v1.4.0

Video
ID : 1
Format : AVC
Format/Info : Advanced Video Codec
Format profile : High@L4.1
Format settings, CABAC : Yes
Format settings, ReFrames : 4 frames
Codec ID : V_MPEG4/ISO/AVC
Duration : 1h 54mn
Bit rate : 4 477 Kbps
Width : 1 280 pixels
Height : 544 pixels
Display aspect ratio : 2.35:1
Frame rate : 60.000 fps
Color space : YUV
Chroma subsampling : 4:2:0
Bit depth : 8 bits
Scan type : Progressive
Bits/(Pixel*Frame) : 0.107
Stream size : 3.59 GiB (90%)
Title : Thor (2011) BDRip 720p (60 Fps).mkv
Writing library : x264 core 130 r2273 b3065e6
Encoding settings : cabac=1 / ref=4 / deblock=1:0:0 / analyse=0x3:0x113 / me=umh / subme=9 / psy=1 / psy_rd=1.00:0.00 / mixed_ref=1 / me_range=24 / chroma_me=1 / trellis=2 / 8x8dct=1 / cqm=0 / deadzone=21,11 / fast_pskip=1 / chroma_qp_offset=-2 / threads=10 / lookahead_threads=1 / sliced_threads=0 / nr=0 / decimate=1 / interlaced=0 / bluray_compat=0 / constrained_intra=0 / bframes=4 / b_pyramid=2 / b_adapt=2 / b_bias=0 / direct=1 / weightb=1 / open_gop=0 / weightp=2 / keyint=600 / keyint_min=59 / scenecut=40 / intra_refresh=0 / rc_lookahead=40 / rc=crf / mbtree=1 / crf=15.5 / qcomp=0.60 / qpmin=0 / qpmax=69 / qpstep=4 / ip_ratio=1.40 / aq=1:1.00
Language : English
Default : Yes
Forced : No

Audio
ID : 2
Format : AC-3
Format/Info : Audio Coding 3
Mode extension : CM (complete main)
Codec ID : A_AC3
Duration : 1h 54mn
Bit rate mode : Constant
Bit rate : 384 Kbps
Channel(s) : 6 channels
Channel positions : Front: L C R, Side: L R, LFE
Sampling rate : 48.0 KHz
Bit depth : 16 bits
Compression mode : Lossy
Stream size : 315 MiB (8%)
Title : Dub
Language : Russian
Default : Yes
Forced : No

Text #1
ID : 3
Format : UTF-8
Codec ID : S_TEXT/UTF8
Codec ID/Info : UTF-8 Plain Text
Title : Full
Language : Russian
Default : No
Forced : No

Text #2
ID : 4
Format : UTF-8
Codec ID : S_TEXT/UTF8
Codec ID/Info : UTF-8 Plain Text
Title : Full
Language : Ukrainian
Default : No
Forced : No

Menu
00:00:00.000 : en:00:00:00.000
00:10:38.137 : en:00:10:38.137
00:17:33.135 : en:00:17:33.135
00:26:02.603 : en:00:26:02.603
00:32:28.196 : en:00:32:28.196
00:37:28.413 : en:00:37:28.413
00:42:14.198 : en:00:42:14.198
00:52:10.377 : en:00:52:10.377
01:01:24.973 : en:01:01:24.973
01:08:45.538 : en:01:08:45.538
01:15:39.160 : en:01:15:39.160
01:21:19.249 : en:01:21:19.249
01:30:35.347 : en:01:30:35.347
01:40:58.177 : en:01:40:58.177
01:45:13.724 : en:01:45:13.724
01:53:06.196 : en:01:53:06.196
скриншот   скриншот   скриншот   скриншот   скриншот   скриншот  
Тор 2: Царство тьмы / Thor: The Dark World
Год выпуска: 2013
Страна: США
Жанр: фэнтези, боевик, приключения

Продолжительность: 01:51:56
Перевод: Дубляж
Субтитры: русские (Forced),
русские (Full),
Режиссер: Алан Тейлор
В ролях: Крис Хемсворт (Thor), Натали Портман (Jane Foster), Том Хиддлстон (Loki), Энтони Хопкинс (Odin), Кристофер Экклстон (Malekith), Джейми Александер (Sif), Закари Левай (Fandral), Рэй Стивенсон (Volstagg), Таданобу Асано (Hogun), Идрис Эльба (Heimdall), Рене Руссо (Frigga), Адевале Акинойе-Агбаже (Algrim / Kurse)
Описание:
Продолжение приключений одного из членов команды Мстителей, скандинавского бога Тора, которому на этот раз в одиночку предстоит защитить Землю и все девять миров от нашествия неизвестного врага.
Могучему Тору предстоит вновь сразиться за восстановление порядка в галактике, встретившись лицом к лицу с древней инопланетной расой, ведомой злодеем Малекитом, жаждущим установить в девяти мирах Влacть тьмы. Столкнувшись с врагом, более могущественным чем сам Один и всё воинство Асгарда, Тор должен собрать силы для решающей битвы. Его ждёт опасное путешествие и долгожданная встреча со своей земной возлюбленной Джейн Фостер. Сможет ли Тор рискнуть самым дорогим, чтобы не дать тьме воцариться на просторах вселенной?
Рейтинг:

Качество: BDRip 720p / 60fps
Формат: MKV
Видео кодек: AVC
Аудио кодек:AC3
Видео: AVC, 1280x536 (2.40:1), 5185 kbps, 60,000 fps, 0,126 bpp
Аудио: русский / AC3 / 5.1 / 48 kHz / 384 kbps / 16 bit ||
Навигация по главам: есть

Релиз:
x264 [info]: frame I:2250 Avg QP:10.69 size: 90897
x264 [info]: frame P:102620 Avg QP:12.48 size: 25619
x264 [info]: frame B:298123 Avg QP:17.27 size: 5100
x264 [info]: consecutive B-frames: 2.9% 3.8% 13.3% 15.8% 64.1%


General
Unique ID : 244033310155915969100104265749642182633 (0xB7971B1F42418F93B39918B513597FE9)
Complete name : E:\THOR DILOGIA\Thor.The.Dark.World.(2013).BDRip.720.(60 Fps).mkv
Format : Matroska
Format version : Version 4 / Version 2
File size : 4.36 GiB
Duration : 1h 51mn
Overall bit rate : 5 574 Kbps
Movie name : Тор 2: Царство тьмы / Thor: The Dark World (2013) BDRip 720p от R.G. HD-Films | 60 fps
Encoded date : UTC 2015-06-17 07:07:16
Writing application : mkvmerge v6.2.0 ('Promised Land') built on Apr 28 2013 12:22:01
Writing library : libebml v1.3.0 + libmatroska v1.4.0

Video
ID : 1
Format : AVC
Format/Info : Advanced Video Codec
Format profile : High@L4.1
Format settings, CABAC : Yes
Format settings, ReFrames : 4 frames
Codec ID : V_MPEG4/ISO/AVC
Duration : 1h 51mn
Bit rate : 5 185 Kbps
Width : 1 280 pixels
Height : 536 pixels
Display aspect ratio : 2.40:1
Frame rate : 60.000 fps
Color space : YUV
Chroma subsampling : 4:2:0
Bit depth : 8 bits
Scan type : Progressive
Bits/(Pixel*Frame) : 0.126
Stream size : 3.97 GiB (91%)
Title : Thor: The Dark World (2013) BDRip 720p (60 Fps).mkv
Writing library : x264 core 130 r2273 b3065e6
Encoding settings : cabac=1 / ref=4 / deblock=1:0:0 / analyse=0x3:0x113 / me=umh / subme=9 / psy=1 / psy_rd=1.00:0.00 / mixed_ref=1 / me_range=24 / chroma_me=1 / trellis=2 / 8x8dct=1 / cqm=0 / deadzone=21,11 / fast_pskip=1 / chroma_qp_offset=-2 / threads=10 / lookahead_threads=1 / sliced_threads=0 / nr=0 / decimate=1 / interlaced=0 / bluray_compat=0 / constrained_intra=0 / bframes=4 / b_pyramid=2 / b_adapt=2 / b_bias=0 / direct=3 / weightb=1 / open_gop=0 / weightp=2 / keyint=600 / keyint_min=59 / scenecut=40 / intra_refresh=0 / rc_lookahead=40 / rc=2pass / mbtree=1 / bitrate=5185 / ratetol=1.0 / qcomp=0.60 / qpmin=0 / qpmax=69 / qpstep=4 / cplxblur=20.0 / qblur=0.5 / ip_ratio=1.40 / aq=1:1.00
Language : English
Default : Yes
Forced : No

Audio
ID : 2
Format : AC-3
Format/Info : Audio Coding 3
Mode extension : CM (complete main)
Codec ID : A_AC3
Duration : 1h 51mn
Bit rate mode : Constant
Bit rate : 384 Kbps
Channel(s) : 6 channels
Channel positions : Front: L C R, Side: L R, LFE
Sampling rate : 48.0 KHz
Bit depth : 16 bits
Compression mode : Lossy
Stream size : 307 MiB (7%)
Title : Dub
Language : Russian
Default : Yes
Forced : No

Text #1
ID : 3
Format : UTF-8
Codec ID : S_TEXT/UTF8
Codec ID/Info : UTF-8 Plain Text
Title : Forced
Language : Russian
Default : No
Forced : No

Text #2
ID : 4
Format : UTF-8
Codec ID : S_TEXT/UTF8
Codec ID/Info : UTF-8 Plain Text
Title : Full
Language : Russian
Default : No
Forced : No

Menu
00:00:00.000 : :Chapter 01
00:06:14.499 : :Chapter 02
00:13:06.369 : :Chapter 03
00:18:41.829 : :Chapter 04
00:24:57.663 : :Chapter 05
00:29:08.497 : :Chapter 06
00:41:34.200 : :Chapter 07
00:49:41.061 : :Chapter 08
00:55:56.979 : :Chapter 09
01:00:09.731 : :Chapter 10
01:08:13.506 : :Chapter 11
01:12:40.731 : :Chapter 12
01:21:35.307 : :Chapter 13
01:26:22.928 : :Chapter 14
01:33:59.634 : :Chapter 15
01:38:32.490 : :Chapter 16
01:41:50.354 : :Chapter 17
скриншот   скриншот   скриншот   скриншот   скриншот   скриншот  
pb.wtf



Скачать Тор: Дилогия через торрент http://i69.fastpic.ru/big/2015/0617/68/980be9d29354d628f1770298435be768.jpg Скачать, смотреть онлайн Тор: Дилогия бесплантно в хорошем качестве Описание: Эпическое происходит как на нашей планете Земля, так и в королевстве богов Асгарде. В центре истории - Могучий Тор, ... 10 10 14
Info! Золотая раздача, скачанное не засчитывается.
Торрент: Зарегистрирован [2015-06-17 10:32] · скачан: 344 раз
Статус: √ проверено
Размер: 8.34 GB
Как cкачать? Как скачать Тор: Дилогия через торрент | UTorrent

28-11-2019 20:33  

Отключить всю рекламу на сайте

    Дорогой пользователь! Огромная просьба, поблагодарите релизера, оцените раздачу и оставьте свои комментарий, если Вы скачали Тор: Дилогия через торрент бесплатно!
    Комментировать посты могут только пользователи прошедшие не сложную регистрацию
    Показать сообщения:    

    Тор: Дилогия через торрент
    Скачать бесплатно Тор: Дилогия
    Тор: Дилогия скачать торрент
    Тор: Дилогия смотреть онлайн
    Cкачать фильм Тор: Дилогия бесплатно
    Тор: Дилогия скачать торрент в хорошем качестве
    Тор: Дилогия смотреть онлайн бесплатно в хорошем качестве


    Вы не можете начинать темы
    Вы не можете отвечать на сообщения
    Вы не можете редактировать свои сообщения
    Вы не можете удалять свои сообщения
    Вы не можете голосовать в опросах
    Вы не можете прикреплять файлы к сообщениям
    Вы можете скачивать файлы