Anonymous, доброй ночи, присоединяйтесь к нам в Telegram!, здесь всегда актуальный адрес сайта, оперативная поддержка и многое другое!

>

5.6

iTunes

7.4

iTunes

7.9

MVO

1

7.7

1 сезон

6.8

iTunes

7.3

1 сезон

13

6.7

1 сезон

8.3

RePack

30

PREMIUM

pack

9.9

Лицензия

ВАЖНО

ИГРА 18+

pack

7.3

RePack

MK11

7.7

RePack

jed

7.8

RePack

fifa19

8.5

RePack

RDR2

RePack

NEED FOR SPEED™ PAYBACK

4 сезон

9 сезон

Бесстыжие 9 сезон

Все сериалы

все сериалы на PB.wtf

RePack

FAR CRY 5

Anonymous, доброй ночи, мы катастрофически не успеваем собрать деньги на оплату серверов, помогите нам пожалуйста 5,10,15р., для нас важна любая помощь . В качестве благодарности мы отключим Вам всю рекламу на сайте (укажите свой ник в строку Ваше имя)!

×
  
Magnet ссылка

Пираты Карибского моря: Квадрология / Pirates of the Caribbean: Quadrilogy [2003-2011, США, фэнтези, приключения, BDRip 1080p / 60 FPS, Профессиональный (дублированный)] от R.G. HD-Films pb.wtf

Пираты Карибского моря: Квадрология через торрент pb.wtf

Раздают: 1 [ 0 KB/s ]
Размер: 64.19 GB | Добавлен: 6 лет 4 мес. назад | Торрент скачан:761 раз
Смотреть онлайн Пираты Карибского моря: Квадрология | Скачать    Ребята, помогите собрать деньги на оплату серверов!!!

17-06-2015 14:58 Пираты Карибского моря: Квадрология Скачать торрент  

Первая и вторая части сделаны по второму методу данной Инструкции . Третья и четвертая части сделаны по первому методу , но с применением аппаратной обработки видеокартой .

Название: Пираты Карибского моря: Проклятие Черной жемчужины
Оригинальное название: Pirates of the Caribbean: The Curse of the Black Pearl
Год выпуска: 2003
Страна: США
Жанр: фэнтези, приключения
Продолжительность: 02:23:41
Перевод: Дубляж
Субтитры: русские (Форсированные), русские (Полные), английские (Полные)
Режиссер: Гор Вербински / Gore Verbinski
В ролях: Джонни Депп (Jack Sparrow), Джеффри Раш (Barbossa), Орландо Блум (Will Turner), Кира Найтли (Elizabeth Swann), Джек Девенпорт (Norrington), Кевин МакНэлли (Joshamee Gibbs), Джонатан Прайс (Governor Weatherby Swann), Ли Аренберг (Pintel), Макензи Крук (Ragetti), Дэвид Бэйли (Cotton), Дэмиан О’Хейр (Lt. Gillette), Джиллз Нью (Murtogg)
Описание:
Жизнь харизматичного авантюриста, капитана Джека Воробья, полная увлекательных приключений, резко меняется, когда его заклятый враг - капитан Барбосса - похищает корабль Джека, Черную Жемчужину, а затем нападает на Порт Ройал и крадет прекрасную дочь губернатора, Элизабет Свонн.
Друг детства Элизабет, Уилл Тернер, вместе с Джеком возглавляет спасательную экспедицию на самом быстром корабле Британии, в попытке вызволить девушку из плена и заодно отобрать у злодея Черную Жемчужину. Вслед за этой парочкой отправляется амбициозный коммодор Норрингтон, который к тому же числится женихом Элизабет.
Однако Уилл не знает, что над Барбоссой висит вечное проклятие, при лунном свете превращающее его с командой в живых скелетов. Проклятье будет снято лишь тогда, когда украденное золото Ацтеков будет возвращено пиратами на старое место.
Рейтинг
kinopoisk.ru: 8.488 (251 675)
imdb.com: 8.10 (699 203)
MPAA: PG-13 - Детям до 13 лет просмотр не желателен
Качество: BDRip 1080p / 60 FPS
Формат: MKV
Видео кодек: AVC
Аудио кодек:AC3
Видео: AVC, 1920x808 (2.40:1), 14000 kbps, 59,940 fps, 0,151 bpp
Аудио №1: русский / AC3 / 5.1 / 48 kHz / 640 kbps / 16 bit |Дубляж|
Аудио №2: английский / AC3 / 5.1 / 48 kHz / 640 kbps / 16 bit
Навигация по главам: есть

General
Unique ID : 230909497308480606394925513036141494642 (0xADB78D312264AEE58C383595C8DD0172)
Complete name : A:\Фильмы\1080p\Пираты Карибского Моря 1080p 60fps\Пираты Карибского моря 1 Проклятье черной жемчужины.mkv
Format : Matroska
Format version : Version 4 / Version 2
File size : 15.3 GiB
Duration : 2h 23mn
Overall bit rate : 15.3 Mbps
Movie name : R.G. HD-Films by Tiberiumsun69
Encoded date : UTC 2015-06-17 12:25:34
Writing application : mkvmerge v7.9.0 ('Birds') 64bit
Writing library : libebml v1.3.1 + libmatroska v1.4.2
Attachment : Yes

Video
ID : 1
Format : AVC
Format/Info : Advanced Video Codec
Format profile : High@L4.1
Format settings, CABAC : Yes
Format settings, ReFrames : 4 frames
Codec ID : V_MPEG4/ISO/AVC
Duration : 2h 23mn
Bit rate : 14.0 Mbps
Width : 1 920 pixels
Height : 808 pixels
Display aspect ratio : 2.40:1
Frame rate : 59.940 fps
Color space : YUV
Chroma subsampling : 4:2:0
Bit depth : 8 bits
Scan type : Progressive
Bits/(Pixel*Frame) : 0.151
Stream size : 13.7 GiB (90%)
Title : R.G. HD-Films by Tiberiumsun69
Writing library : x264 core 146 r2538 121396c
Encoding settings : cabac=1 / ref=4 / deblock=1:0:0 / analyse=0x3:0x113 / me=umh / subme=9 / psy=1 / psy_rd=1.00:0.10 / mixed_ref=1 / me_range=32 / chroma_me=1 / trellis=2 / 8x8dct=1 / cqm=0 / deadzone=21,11 / fast_pskip=0 / chroma_qp_offset=-3 / threads=12 / lookahead_threads=3 / sliced_threads=0 / nr=0 / decimate=1 / interlaced=0 / bluray_compat=0 / constrained_intra=0 / bframes=16 / b_pyramid=2 / b_adapt=2 / b_bias=0 / direct=3 / weightb=1 / open_gop=0 / weightp=2 / keyint=600 / keyint_min=59 / scenecut=40 / intra_refresh=0 / rc_lookahead=60 / rc=2pass / mbtree=1 / bitrate=14000 / ratetol=1.0 / qcomp=0.60 / qpmin=0 / qpmax=69 / qpstep=4 / cplxblur=20.0 / qblur=0.5 / vbv_maxrate=50000 / vbv_bufsize=62500 / nal_hrd=none / filler=0 / ip_ratio=1.40 / aq=1:1.00
Language : English
Default : Yes
Forced : No

Audio #1
ID : 2
Format : AC-3
Format/Info : Audio Coding 3
Mode extension : CM (complete main)
Codec ID : A_AC3
Duration : 2h 23mn
Bit rate mode : Constant
Bit rate : 640 Kbps
Channel(s) : 6 channels
Channel positions : Front: L C R, Side: L R, LFE
Sampling rate : 48.0 KHz
Bit depth : 16 bits
Compression mode : Lossy
Stream size : 658 MiB (4%)
Title : Дубляж
Language : Russian
Default : Yes
Forced : No

Audio #2
ID : 3
Format : AC-3
Format/Info : Audio Coding 3
Mode extension : CM (complete main)
Codec ID : A_AC3
Duration : 2h 23mn
Bit rate mode : Constant
Bit rate : 640 Kbps
Channel(s) : 6 channels
Channel positions : Front: L C R, Side: L R, LFE
Sampling rate : 48.0 KHz
Bit depth : 16 bits
Compression mode : Lossy
Stream size : 658 MiB (4%)
Title : Дубляж
Language : English
Default : No
Forced : No

Text #1
ID : 4
Format : UTF-8
Codec ID : S_TEXT/UTF8
Codec ID/Info : UTF-8 Plain Text
Title : Форсированные
Language : Russian
Default : Yes
Forced : No

Text #2
ID : 5
Format : UTF-8
Codec ID : S_TEXT/UTF8
Codec ID/Info : UTF-8 Plain Text
Title : Полные
Language : Russian
Default : No
Forced : No

Text #3
ID : 6
Format : UTF-8
Codec ID : S_TEXT/UTF8
Codec ID/Info : UTF-8 Plain Text
Title : Полные
Language : English
Default : No
Forced : No

Menu
00:00:00.000 : en:Chapter 1
00:08:52.240 : en:Chapter 2
00:16:06.548 : en:Chapter 3
00:27:17.344 : en:Chapter 4
00:36:00.324 : en:Chapter 5
00:41:03.961 : en:Chapter 6
00:48:20.939 : en:Chapter 7
00:54:02.405 : en:Chapter 8
01:04:06.676 : en:Chapter 9
01:15:57.803 : en:Chapter 10
01:21:22.419 : en:Chapter 11
01:35:01.153 : en:Chapter 12
01:40:01.745 : en:Chapter 13
01:48:16.615 : en:Chapter 14
02:02:03.190 : en:Chapter 15
02:13:10.649 : en:Chapter 16
02:23:02.198 : en:Chapter 17

Название: Пираты Карибского моря: Сундук мертвеца
Оригинальное название: Pirates of the Caribbean: Dead Man's Chest
Год выпуска: 2006
Страна: США
Жанр: фэнтези, боевик, приключения
Продолжительность: 02:30:41
Перевод: Дубляж
Субтитры: русские (Форсированные), русские (Полные), английские (Полные)
Режиссер: Гор Вербински / Gore Verbinski
В ролях: Джонни Депп (Jack Sparrow), Орландо Блум (Will Turner), Кира Найтли (Elizabeth Swann), Джек Девенпорт (Norrington), Билл Найи (Davy Jones), Стеллан Скарсгард (Bootstrap Bill), Кевин МакНэлли (Gibbs), Ли Аренберг (Pintel), Макензи Крук (Ragetti), Том Холландер (Cutler Beckett), Джонатан Прайс (Governor Weatherby Swann), Дэвид Бэйли (Cotton)
Описание:
Вновь оказавшись в ирреальном мире, лихой капитан Джек Воробей неожиданно узнает, что является должником легендарного капитана «Летучего Голландца» Дэйви Джонса. Джек должен в кратчайшие сроки решить эту проблему, иначе ему грозит вечное проклятие и рабское существование после смерти. Вдобавок ко всему, срывается свадьба Уилла Тернера и Элизабет Суонн, которые вынуждены составить Джеку компанию в его злоключениях...
Рейтинг
kinopoisk.ru: 8.175 (199 121)
imdb.com: 7.30 (457 625)
MPAA: PG-13 - Детям до 13 лет просмотр не желателен
Качество: BDRip 1080p / 60 FPS
Формат: MKV
Видео кодек: AVC
Аудио кодек:AC3
Видео: AVC, 1920x800 (2.40:1), 14000 kbps, 59,940 fps, 0,152 bpp
Аудио №1: русский / AC3 / 5.1 / 48 kHz / 640 kbps / 16 bit |Дубляж|
Аудио №2: английский / AC3 / 5.1 / 48 kHz / 640 kbps / 16 bit
Навигация по главам: есть

General
Unique ID : 236711880380128828580178122837307216751 (0xB2150CC3BB55FA56A975EEC50824D36F)
Complete name : A:\Фильмы\1080p\Пираты Карибского Моря 1080p 60fps\Пираты Карибского моря 2 Сундук мертвеца.mkv
Format : Matroska
Format version : Version 4 / Version 2
File size : 16.1 GiB
Duration : 2h 30mn
Overall bit rate : 15.3 Mbps
Movie name : R.G. HD-Films by Tiberiumsun69
Encoded date : UTC 2015-06-17 12:57:54
Writing application : mkvmerge v7.9.0 ('Birds') 64bit
Writing library : libebml v1.3.1 + libmatroska v1.4.2
Attachment : Yes

Video
ID : 1
Format : AVC
Format/Info : Advanced Video Codec
Format profile : High@L4.1
Format settings, CABAC : Yes
Format settings, ReFrames : 4 frames
Codec ID : V_MPEG4/ISO/AVC
Duration : 2h 30mn
Bit rate : 14.0 Mbps
Width : 1 920 pixels
Height : 800 pixels
Display aspect ratio : 2.40:1
Frame rate : 59.940 fps
Color space : YUV
Chroma subsampling : 4:2:0
Bit depth : 8 bits
Scan type : Progressive
Bits/(Pixel*Frame) : 0.152
Stream size : 14.4 GiB (90%)
Title : R.G. HD-Films by Tiberiumsun69
Writing library : x264 core 146 r2538 121396c
Encoding settings : cabac=1 / ref=4 / deblock=1:0:0 / analyse=0x3:0x113 / me=umh / subme=9 / psy=1 / psy_rd=1.00:0.10 / mixed_ref=1 / me_range=32 / chroma_me=1 / trellis=2 / 8x8dct=1 / cqm=0 / deadzone=21,11 / fast_pskip=0 / chroma_qp_offset=-3 / threads=12 / lookahead_threads=3 / sliced_threads=0 / nr=0 / decimate=1 / interlaced=0 / bluray_compat=0 / constrained_intra=0 / bframes=16 / b_pyramid=2 / b_adapt=2 / b_bias=0 / direct=3 / weightb=1 / open_gop=0 / weightp=2 / keyint=600 / keyint_min=59 / scenecut=40 / intra_refresh=0 / rc_lookahead=60 / rc=2pass / mbtree=1 / bitrate=14000 / ratetol=1.0 / qcomp=0.60 / qpmin=0 / qpmax=69 / qpstep=4 / cplxblur=20.0 / qblur=0.5 / vbv_maxrate=50000 / vbv_bufsize=62500 / nal_hrd=none / filler=0 / ip_ratio=1.40 / aq=1:1.00
Language : English
Default : Yes
Forced : No

Audio #1
ID : 2
Format : AC-3
Format/Info : Audio Coding 3
Mode extension : CM (complete main)
Codec ID : A_AC3
Duration : 2h 30mn
Bit rate mode : Constant
Bit rate : 640 Kbps
Channel(s) : 6 channels
Channel positions : Front: L C R, Side: L R, LFE
Sampling rate : 48.0 KHz
Bit depth : 16 bits
Compression mode : Lossy
Delay relative to video : 1s 1ms
Stream size : 690 MiB (4%)
Title : Дубляж
Language : Russian
Default : Yes
Forced : No

Audio #2
ID : 3
Format : AC-3
Format/Info : Audio Coding 3
Mode extension : CM (complete main)
Codec ID : A_AC3
Duration : 2h 30mn
Bit rate mode : Constant
Bit rate : 640 Kbps
Channel(s) : 6 channels
Channel positions : Front: L C R, Side: L R, LFE
Sampling rate : 48.0 KHz
Bit depth : 16 bits
Compression mode : Lossy
Delay relative to video : 1s 1ms
Stream size : 690 MiB (4%)
Title : Оригинал
Language : English
Default : No
Forced : No

Text #1
ID : 4
Format : UTF-8
Codec ID : S_TEXT/UTF8
Codec ID/Info : UTF-8 Plain Text
Title : Форсированные
Language : Russian
Default : Yes
Forced : No

Text #2
ID : 5
Format : UTF-8
Codec ID : S_TEXT/UTF8
Codec ID/Info : UTF-8 Plain Text
Title : Полные
Language : Russian
Default : No
Forced : No

Text #3
ID : 6
Format : UTF-8
Codec ID : S_TEXT/UTF8
Codec ID/Info : UTF-8 Plain Text
Title : Полные
Language : English
Default : No
Forced : No

Menu
00:00:00.000 : :Chapter 1
00:04:18.924 : :Chapter 2
00:09:53.009 : :Chapter 3
00:12:13.441 : :Chapter 4
00:19:09.064 : :Chapter 5
00:23:53.471 : :Chapter 6
00:30:15.480 : :Chapter 7
00:35:29.418 : :Chapter 8
00:40:32.929 : :Chapter 9
00:46:28.034 : :Chapter 10
00:50:25.563 : :Chapter 11
00:56:18.625 : :Chapter 12
00:59:52.380 : :Chapter 13
01:05:45.189 : :Chapter 14
01:11:55.853 : :Chapter 15
01:17:04.327 : :Chapter 16
01:22:10.256 : :Chapter 17
01:30:36.639 : :Chapter 18
01:34:38.171 : :Chapter 19
01:39:21.828 : :Chapter 20
01:44:52.408 : :Chapter 21
01:49:14.712 : :Chapter 22
01:54:55.805 : :Chapter 23
01:59:36.042 : :Chapter 24
02:04:59.908 : :Chapter 25
02:10:27.194 : :Chapter 26
02:16:20.629 : :Chapter 27
02:21:04.789 : :Chapter 28
02:30:39.030 : :Chapter 29

Название: Пираты Карибского моря: На краю Света
Оригинальное название: Pirates of the Caribbean: At World's End
Год выпуска: 2007
Страна: США
Жанр: фэнтези, боевик, приключения
Продолжительность: 02:48:30
Перевод: Дубляж
Субтитры: русские (Форсированные), русские (Полные), английские (Полные)
Режиссер: Гор Вербински / Gore Verbinski
В ролях: Джонни Депп (Jack Sparrow), Джеффри Раш (Captain Hector Barbossa), Орландо Блум (Will Turner), Кира Найтли (Elizabeth Swann), Том Холландер (Cutler Beckett), Билл Найи (Davy Jones), Стеллан Скарсгард (Bootstrap Bill), Наоми Харрис (Tia Dalma), Джек Девенпорт (Norrington), Чоу Юнь-Фат (Captain Sao Feng), Джонатан Прайс (Governor Weatherby Swann), Кит Ричардс (Captain Teague)
Описание:
Новые приключения Джека Воробья и его друзей Уилла Тернера и Элизабет Суонн. На этот раз Уиллу и Элизабет придется объединиться с самим Капитаном Барбоссой для того, чтобы отправиться на край света и спасти своего друга - Джека. Ситуация осложняется тем, что Элизабет попадает к сингапурским пиратам...
Рейтинг
kinopoisk.ru: 8.071 (167 407)
imdb.com: 7.10 (412 145)
MPAA: PG-13 - Детям до 13 лет просмотр не желателен
Качество: BDRip 1080p / 60 FPS
Формат: MKV
Видео кодек: AVC
Аудио кодек:AC3
Видео: AVC, 1920x800 (2.40:1), 14100 kbps, 59,940 fps, 0,153 bpp
Аудио №1: русский / AC3 / 5.1 / 48 kHz / 640 kbps / 16 bit |Дубляж|
Аудио №2: английский / AC3 / 5.1 / 48 kHz / 640 kbps / 16 bit
Навигация по главам: есть

General
Unique ID : 193574592534331004501100073581613183314 (0x91A11C44B5F2A87BAE917C8D97A87152)
Complete name : A:\Фильмы\1080p\Пираты Карибского Моря 1080p 60fps\Пираты Карибского моря 3 На краю света.mkv
Format : Matroska
Format version : Version 4 / Version 2
File size : 18.1 GiB
Duration : 2h 48mn
Overall bit rate : 15.4 Mbps
Movie name : R.G. HD-Films by Tiberiumsun69
Encoded date : UTC 2015-06-17 13:39:50
Writing application : mkvmerge v7.9.0 ('Birds') 64bit
Writing library : libebml v1.3.1 + libmatroska v1.4.2
Attachment : Yes

Video
ID : 1
Format : AVC
Format/Info : Advanced Video Codec
Format profile : High@L4.1
Format settings, CABAC : Yes
Format settings, ReFrames : 4 frames
Codec ID : V_MPEG4/ISO/AVC
Duration : 2h 48mn
Bit rate : 14.1 Mbps
Width : 1 920 pixels
Height : 800 pixels
Display aspect ratio : 2.40:1
Frame rate : 59.940 fps
Color space : YUV
Chroma subsampling : 4:2:0
Bit depth : 8 bits
Scan type : Progressive
Bits/(Pixel*Frame) : 0.153
Stream size : 16.2 GiB (90%)
Title : R.G. HD-Films by Tiberiumsun69
Writing library : x264 core 146 r2538 121396c
Encoding settings : cabac=1 / ref=4 / deblock=1:0:0 / analyse=0x3:0x113 / me=umh / subme=9 / psy=1 / psy_rd=1.00:0.10 / mixed_ref=1 / me_range=32 / chroma_me=1 / trellis=2 / 8x8dct=1 / cqm=0 / deadzone=21,11 / fast_pskip=0 / chroma_qp_offset=-3 / threads=12 / lookahead_threads=3 / sliced_threads=0 / nr=0 / decimate=1 / interlaced=0 / bluray_compat=0 / constrained_intra=0 / bframes=16 / b_pyramid=2 / b_adapt=2 / b_bias=0 / direct=3 / weightb=1 / open_gop=0 / weightp=2 / keyint=600 / keyint_min=59 / scenecut=40 / intra_refresh=0 / rc_lookahead=60 / rc=2pass / mbtree=1 / bitrate=14100 / ratetol=1.0 / qcomp=0.60 / qpmin=0 / qpmax=69 / qpstep=4 / cplxblur=20.0 / qblur=0.5 / vbv_maxrate=50000 / vbv_bufsize=62500 / nal_hrd=none / filler=0 / ip_ratio=1.40 / aq=1:1.00
Language : English
Default : Yes
Forced : No

Audio #1
ID : 2
Format : AC-3
Format/Info : Audio Coding 3
Mode extension : CM (complete main)
Codec ID : A_AC3
Duration : 2h 48mn
Bit rate mode : Constant
Bit rate : 640 Kbps
Channel(s) : 6 channels
Channel positions : Front: L C R, Side: L R, LFE
Sampling rate : 48.0 KHz
Bit depth : 16 bits
Compression mode : Lossy
Stream size : 771 MiB (4%)
Title : Дубляж
Language : Russian
Default : Yes
Forced : No

Audio #2
ID : 3
Format : AC-3
Format/Info : Audio Coding 3
Mode extension : CM (complete main)
Codec ID : A_AC3
Duration : 2h 48mn
Bit rate mode : Constant
Bit rate : 640 Kbps
Channel(s) : 6 channels
Channel positions : Front: L C R, Side: L R, LFE
Sampling rate : 48.0 KHz
Bit depth : 16 bits
Compression mode : Lossy
Stream size : 771 MiB (4%)
Title : Оригинал
Language : Russian
Default : No
Forced : No

Text #1
ID : 4
Format : UTF-8
Codec ID : S_TEXT/UTF8
Codec ID/Info : UTF-8 Plain Text
Title : Форсированные
Language : Russian
Default : Yes
Forced : No

Text #2
ID : 5
Format : UTF-8
Codec ID : S_TEXT/UTF8
Codec ID/Info : UTF-8 Plain Text
Title : Полные
Language : Russian
Default : No
Forced : No

Text #3
ID : 6
Format : UTF-8
Codec ID : S_TEXT/UTF8
Codec ID/Info : UTF-8 Plain Text
Title : Полные
Language : English
Default : No
Forced : No

Menu
00:00:00.000 : :Chapter 1
00:04:33.940 : :Chapter 2
00:10:01.809 : :Chapter 3
00:19:58.280 : :Chapter 4
00:26:07.482 : :Chapter 5
00:32:47.340 : :Chapter 6
00:39:40.336 : :Chapter 7
00:46:04.762 : :Chapter 8
00:51:31.963 : :Chapter 9
00:58:03.730 : :Chapter 10
01:04:50.678 : :Chapter 11
01:12:46.820 : :Chapter 12
01:17:54.878 : :Chapter 13
01:24:46.539 : :Chapter 14
01:28:41.357 : :Chapter 15
01:33:34.150 : :Chapter 16
01:38:05.671 : :Chapter 17
01:41:52.981 : :Chapter 18
01:48:12.652 : :Chapter 19
01:53:13.286 : :Chapter 20
01:59:31.372 : :Chapter 21
02:05:52.211 : :Chapter 22
02:09:13.245 : :Chapter 23
02:13:53.525 : :Chapter 24
02:23:19.257 : :Chapter 25
02:28:15.636 : :Chapter 26
02:34:29.218 : :Chapter 27
02:38:48.560 : :Chapter 28
02:48:30.100 : :Chapter 29

Название: Пираты Карибского моря: На странных берегах
Оригинальное название: Pirates of the Caribbean: On Stranger Tides
Год выпуска: 2011
Страна: США, Великобритания
Жанр: фэнтези, боевик, комедия, приключения
Продолжительность: 02:16:23
Перевод: Дубляж
Субтитры: русские (Форсированные), русские (Полные), английские (Полные)
Режиссер: Роб Маршалл / Rob Marshall
В ролях: Джонни Депп (Jack Sparrow), Пенелопа Крус (Angelica), Джеффри Раш (Barbossa), Иэн МакШейн (Blackbeard), Кевин МакНэлли (Gibbs), Сэм Клафлин (Philip), Астрид Берже-Фрисби (Syrena), Стивен Грэм (Scrum), Кит Ричардс (Captain Teague), Ричард Гриффитс (King George), Грег Эллис (Groves), Дэмиан О’Хейр (Gillette)
Описание:
В новой истории о поисках истины, предательстве, вечной молодости и смертельной опасности капитану Джеку Воробью предстоит столкнуться с женщиной из своего прошлого Анжеликой. До самого конца не будет понятно, связывает ли их настоящая любовь, или же Анжелика искусно притворяется, чтобы вместе с Джеком добраться до таинственного источника вечной молодости.
Она силой принуждает капитана Джека Воробья взойти на корабль «Месть Королевы Анны», которым управляет коварный злодей Черная Борода. Наш герой оказывается в ситуации, когда он не знает, чего ему бояться больше - ужасного злодея или же свою давнюю подругу.
Рейтинг
kinopoisk.ru: 7.388 (128 776)
imdb.com: 6.70 (320 239)
MPAA: PG-13 - Детям до 13 лет просмотр не желателен
Качество: BDRip 1080p / 60 FPS
Формат: MKV
Видео кодек: AVC
Аудио кодек:AC3
Видео: AVC, 1920x816 (2.35:1), 14100 kbps, 59,940 fps, 0,150 bpp
Аудио №1: русский / AC3 / 5.1 / 48 kHz / 640 kbps / 16 bit |Дубляж|
Аудио №2: английский / AC3 / 5.1 / 48 kHz / 640 kbps / 16 bit
Навигация по главам: есть

General
Unique ID : 216192584888109346813478261049420421309 (0xA2A52D637870B93B91B785B1C27018BD)
Complete name : A:\Фильмы\1080p\Пираты Карибского Моря 1080p 60fps\Пираты Карибского моря 4 На странных берегах.mkv
Format : Matroska
Format version : Version 4 / Version 2
File size : 14.7 GiB
Duration : 2h 16mn
Overall bit rate : 15.4 Mbps
Movie name : R.G. HD-Films by Tiberiumsun69
Encoded date : UTC 2015-06-17 14:01:55
Writing application : mkvmerge v7.9.0 ('Birds') 64bit
Writing library : libebml v1.3.1 + libmatroska v1.4.2
Attachment : Yes

Video
ID : 1
Format : AVC
Format/Info : Advanced Video Codec
Format profile : High@L4.1
Format settings, CABAC : Yes
Format settings, ReFrames : 4 frames
Codec ID : V_MPEG4/ISO/AVC
Duration : 2h 16mn
Bit rate : 14.1 Mbps
Width : 1 920 pixels
Height : 816 pixels
Display aspect ratio : 2.35:1
Frame rate : 59.940 fps
Color space : YUV
Chroma subsampling : 4:2:0
Bit depth : 8 bits
Scan type : Progressive
Bits/(Pixel*Frame) : 0.150
Stream size : 13.1 GiB (90%)
Title : R.G. HD-Films by Tiberiumsun69
Writing library : x264 core 146 r2538 121396c
Encoding settings : cabac=1 / ref=4 / deblock=1:0:0 / analyse=0x3:0x113 / me=umh / subme=9 / psy=1 / psy_rd=1.00:0.10 / mixed_ref=1 / me_range=32 / chroma_me=1 / trellis=2 / 8x8dct=1 / cqm=0 / deadzone=21,11 / fast_pskip=0 / chroma_qp_offset=-3 / threads=12 / lookahead_threads=3 / sliced_threads=0 / nr=0 / decimate=1 / interlaced=0 / bluray_compat=0 / constrained_intra=0 / bframes=16 / b_pyramid=2 / b_adapt=2 / b_bias=0 / direct=3 / weightb=1 / open_gop=0 / weightp=2 / keyint=600 / keyint_min=59 / scenecut=40 / intra_refresh=0 / rc_lookahead=60 / rc=2pass / mbtree=1 / bitrate=14100 / ratetol=1.0 / qcomp=0.60 / qpmin=0 / qpmax=69 / qpstep=4 / cplxblur=20.0 / qblur=0.5 / vbv_maxrate=50000 / vbv_bufsize=62500 / nal_hrd=none / filler=0 / ip_ratio=1.40 / aq=1:1.00
Language : English
Default : Yes
Forced : No

Audio #1
ID : 2
Format : AC-3
Format/Info : Audio Coding 3
Mode extension : CM (complete main)
Codec ID : A_AC3
Duration : 2h 16mn
Bit rate mode : Constant
Bit rate : 640 Kbps
Channel(s) : 6 channels
Channel positions : Front: L C R, Side: L R, LFE
Sampling rate : 48.0 KHz
Bit depth : 16 bits
Compression mode : Lossy
Stream size : 624 MiB (4%)
Title : Дубляж
Language : Russian
Default : Yes
Forced : No

Audio #2
ID : 3
Format : AC-3
Format/Info : Audio Coding 3
Mode extension : CM (complete main)
Codec ID : A_AC3
Duration : 2h 16mn
Bit rate mode : Constant
Bit rate : 640 Kbps
Channel(s) : 6 channels
Channel positions : Front: L C R, Side: L R, LFE
Sampling rate : 48.0 KHz
Bit depth : 16 bits
Compression mode : Lossy
Stream size : 624 MiB (4%)
Title : Оригинал
Language : English
Default : No
Forced : No

Text #1
ID : 4
Format : UTF-8
Codec ID : S_TEXT/UTF8
Codec ID/Info : UTF-8 Plain Text
Title : Форсированные
Language : Russian
Default : Yes
Forced : No

Text #2
ID : 5
Format : UTF-8
Codec ID : S_TEXT/UTF8
Codec ID/Info : UTF-8 Plain Text
Title : Полные
Language : Russian
Default : No
Forced : No

Text #3
ID : 6
Format : UTF-8
Codec ID : S_TEXT/UTF8
Codec ID/Info : UTF-8 Plain Text
Title : Полные
Language : English
Default : No
Forced : No

Menu
00:00:00.000 : :Chapter 1
00:03:34.172 : :Chapter 2
00:08:46.776 : :Chapter 3
00:15:56.080 : :Chapter 4
00:18:34.154 : :Chapter 5
00:21:15.315 : :Chapter 6
00:30:05.512 : :Chapter 7
00:36:56.756 : :Chapter 8
00:42:05.356 : :Chapter 9
00:48:20.022 : :Chapter 10
00:53:26.077 : :Chapter 11
00:55:42.964 : :Chapter 12
00:57:52.844 : :Chapter 13
01:00:47.477 : :Chapter 14
01:08:22.223 : :Chapter 15
01:11:41.338 : :Chapter 16
01:13:03.170 : :Chapter 17
01:14:16.743 : :Chapter 18
01:23:19.994 : :Chapter 19
01:26:49.621 : :Chapter 20
01:30:16.494 : :Chapter 21
01:35:43.737 : :Chapter 22
01:40:57.926 : :Chapter 23
01:43:07.556 : :Chapter 24
01:44:51.660 : :Chapter 25
01:48:53.610 : :Chapter 26
01:57:41.471 : :Chapter 27
02:02:21.375 : :Chapter 28
02:05:51.460 : :Chapter 29
02:07:26.805 : :Chapter 30
02:16:23.592 : :Chapter 31
Просьба к переливающим на другие сайты, в оформлении указывайте пожалуйста авторство группы R.G. HD-FilmsАвторская группа в ВК
pb.wtf



Скачать Пираты Карибского моря: Квадрология через торрент http://i70.fastpic.ru/big/2015/0617/4a/105a902f6c83d6c8953a2133f58e054a.jpg Скачать, смотреть онлайн Пираты Карибского моря: Квадрология бесплантно в хорошем качестве Описание: Жизнь харизматичного авантюриста, капитана Джека Воробья, полная увлекательных приключений, резко меняется, когда его заклятый ... 10 10 42
Info! Золотая раздача, скачанное не засчитывается.
Торрент: Зарегистрирован [2015-06-17 14:58] · скачан: 761 раз
Статус: √ проверено
Размер: 64.19 GB
Как cкачать? Как скачать Пираты Карибского моря: Квадрология через торрент | UTorrent

% Раздел Тема Автор DL S | L
Сборники и Сиквелы (48-60 fps) [ 15.77 GB ] Пираты Карибского моря: Квадрология / Pirates of the Caribbean Sea: Quadrilogy [2003 - 2011 BDRip-AVC / 60fps DUB] от R.G. HD-Films Ressident Скачать
2 | 0


Последний раз редактировалось: Tiberiumsun69 (2018-02-09 08:06), всего редактировалось 1 раз

28-11-2019 20:33  

Отключить всю рекламу на сайте

17-06-2015 14:59 Пираты Карибского моря: Квадрология Скачать торрент  

Всем приятного просмотра. :hmmm sweatpb.wtf



17-06-2015 15:52 Пираты Карибского моря: Квадрология Скачать торрент  

Tiberiumsun69 писал(а):

Всем приятного просмотра. :hmmm sweat

спасибо огромное за ваши труды !pb.wtf



17-06-2015 22:52 Пираты Карибского моря: Квадрология Скачать торрент  

Спасибоpb.wtf



18-06-2015 11:53 Пираты Карибского моря: Квадрология Скачать торрент  

den7z8, sokol_ok,
Пожалуйста. :hmmmpb.wtf



07-08-2015 13:31 Пираты Карибского моря: Квадрология Скачать торрент  

Скорости добавьте пожалуйста.pb.wtf



06-02-2017 09:38 Пираты Карибского моря: Квадрология Скачать торрент  

дайте скоростьpb.wtf



    Дорогой пользователь! Огромная просьба, поблагодарите релизера, оцените раздачу и оставьте свои комментарий, если Вы скачали Пираты Карибского моря: Квадрология через торрент бесплатно!
    Комментировать посты могут только пользователи прошедшие не сложную регистрацию
    Показать сообщения:    

    Пираты Карибского моря: Квадрология через торрент
    Скачать бесплатно Пираты Карибского моря: Квадрология
    Пираты Карибского моря: Квадрология скачать торрент
    Пираты Карибского моря: Квадрология смотреть онлайн
    Cкачать фильм Пираты Карибского моря: Квадрология бесплатно
    Пираты Карибского моря: Квадрология скачать торрент в хорошем качестве
    Пираты Карибского моря: Квадрология смотреть онлайн бесплатно в хорошем качестве


    Вы не можете начинать темы
    Вы не можете отвечать на сообщения
    Вы не можете редактировать свои сообщения
    Вы не можете удалять свои сообщения
    Вы не можете голосовать в опросах
    Вы не можете прикреплять файлы к сообщениям
    Вы можете скачивать файлы