Ссылка на приватное зеркало нашего сайта всего за 1$. Внимание количество ограничено!!!

2 сезон

iTunes

1 сезон

1

2 сезон

2 сезон

iTunes

1 сезон

RePack

30

Ultimate

ВАЖНО

ИГРА 18+

pack

RePack

MK11
pack

Забери бонус

RePack

jed

!!Акция!!

Alien_Rage

RePack

fifa19

RePack

Assassins Creed: Odyssey

RePack

NEED FOR SPEED™ PAYBACK

4 сезон

9 сезон

Бесстыжие 9 сезон

Все сериалы

все сериалы на PB.wtf

RePack

FAR CRY 5
  

Тиран / Tyrant / Сезон: 2 / Серии 1-12 из 12 (Майкл Леманн / Michael Lehmann, Гвинет Хердер-Пэйтон / Gwyneth Horder-Payton, Дэвид Петрарка / David Petrarca) [2015, США, боевик, триллер, драма, WEB-DLRip] MVO [BaibaKo] pb.wtf

Тиран через торрент pb.wtf

Размер: 7.09 GB | Добавлен: 5 лет 2 мес. назад | Торрент скачан:156 раз
Скачать  

18-06-2015 02:03 Тиран Скачать торрент  

Тиран / Tyrant


  • Год выпуска: 2015
  • Страна: США
  • Жанр: боевик, триллер, драма
  • Продолжительность: 00:46:37 (Серия)
  • Перевод: Профессиональный многоголосый закадровый [BaibaKo]

  • Режиссер: Майкл Леманн / Michael Lehmann, Гвинет Хердер-Пэйтон / Gwyneth Horder-Payton, Дэвид Петрарка / David Petrarca
  • В ролях:

    Адам Рэйнер (Barry Al-Fayeed), Дженнифер Финниган (Molly Al-Fayeed), Энн Уинтерс (Emma Al-Fayeed), Ашраф Бархом (Jamal Al-Fayeed), Ной Сильвер (Sammy Al-Fayeed), Фарес Фарес (Fauzi Nadal), Моран Атиас (Leila Al-Fayeed), Салим Дау (Yussef), Мехди Дехби (Abdul), Элис Крайдж (Amira Al-Fayeed), Джастин Кирк (John Tucker), Раад Рави (General Tariq Al-Fayeed)

  • Описание:
    Действие данного сериала развивается на территории Ближнего Востока, которую абсолютно по праву принято считать одной из самых нестабильных точек земного шара, как в военном, так и в политическом плане. Именно в этой местности постоянно сосредотачиваются различные современные военные конфликты и пересечения интересов. Имя центрального персонажа проекта - Бассам «Барри» Аль Фаед. Эта личность является сыном одного диктатора из восточных стран. Живя в Соединенных Штатах на протяжении двух десятков лет, по воле судьбы парень вынужден обратно возвратиться на свою Родину.
  • Рейтинг:



  • Качество: WEB-DLRip
  • Формат: :AVI
  • Видео кодек: XviD
  • Аудио кодек: MP3
  • Видео: 720x400 (16:9), 1498 kbps, 23,976 fps, 0,217 bpp
  • Аудио №1: Русский 2.0 / 48 kHz / 192 kbps
  • Аудио №2: Английский 2.0 / 48 kHz / 192 kbps
  • Релиз от: GEKADOL

    Код:

    Внимание! Раздача ведётся путём добавления новых серий; при каждом добавлении создаётся новый торрент. Чтобы начать докачку новой серии, пользователям необходимо сделать следующее:
    (1) остановить скачивание,
    (2) удалить старый торрент у себя из клиента (старые серии удалять не надо),
    (3) скачать новый торрент и запустить его у себя в клиенте вместо старого, при этом указать клиенту путь в старую папку куда и должно происходить скачивание новых серий.
    Ваш клиент при этом должен произвести хеширование (проверку) старой папки (если не производит сам - помогите ему сделать это), и будет докачивать только те серии которых у вас ещё нет. Старые серии при этом не удаляются, а продолжают раздаваться!
    Eсли вы уже удалили старые серии, то предотвратить повторную закачку старых серий можно, отжав галочку в соответствующих местах при запуске нового торрента. По возможности, желательно не удалять старые серии как можно дольше чтобы релизёр не столько продолжал раздавать старые серии, а смог сконцентрироваться на новых.


    Код:

    General
    Complete name                            : F:\Tyrant (S02) BaibaKo\Tyrant.s02e01.WEB-DLRip.XviD.Rus.Eng.BaibaKo.tv.avi
    Format                                   : AVI
    Format/Info                              : Audio Video Interleave
    File size                                : 632 MiB
    Duration                                 : 46mn 37s
    Overall bit rate                         : 1 897 Kbps
    Writing application                      : VirtualDubMod 1.5.10.3 | www.virtualdub-fr.org || (build 2550/release)
    Writing library                          : VirtualDubMod build 2550/release

    Video
    ID                                       : 0
    Format                                   : MPEG-4 Visual
    Format profile                           : Advanced Simple@L5
    Format settings, BVOP                    : 2
    Format settings, QPel                    : No
    Format settings, GMC                     : No warppoints
    Format settings, Matrix                  : Custom
    Codec ID                                 : XVID
    Codec ID/Hint                            : XviD
    Duration                                 : 46mn 37s
    Bit rate                                 : 1 499 Kbps
    Width                                    : 720 pixels
    Height                                   : 400 pixels
    Display aspect ratio                     : 16:9
    Frame rate                               : 23.976 fps
    Color space                              : YUV
    Chroma subsampling                       : 4:2:0
    Bit depth                                : 8 bits
    Scan type                                : Progressive
    Compression mode                         : Lossy
    Bits/(Pixel*Frame)                       : 0.217
    Stream size                              : 500 MiB (79%)
    Writing library                          : XviD 1.2.1 (UTC 2008-12-04)

    Audio #1
    ID                                       : 1
    Format                                   : MPEG Audio
    Format version                           : Version 1
    Format profile                           : Layer 3
    Codec ID                                 : 55
    Codec ID/Hint                            : MP3
    Duration                                 : 46mn 36s
    Bit rate mode                            : Constant
    Bit rate                                 : 192 Kbps
    Channel(s)                               : 2 channels
    Sampling rate                            : 48.0 KHz
    Compression mode                         : Lossy
    Stream size                              : 64.0 MiB (10%)
    Alignment                                : Aligned on interleaves
    Interleave, duration                     : 42 ms (1.00 video frame)
    Interleave, preload duration             : 504 ms
    Writing library                          : LAME3.99r
    Encoding settings                        : -m s -V 4 -q 0 -lowpass 18.6 -b 192

    Audio #2
    ID                                       : 2
    Format                                   : MPEG Audio
    Format version                           : Version 1
    Format profile                           : Layer 3
    Codec ID                                 : 55
    Codec ID/Hint                            : MP3
    Duration                                 : 46mn 35s
    Bit rate mode                            : Constant
    Bit rate                                 : 192 Kbps
    Channel(s)                               : 2 channels
    Sampling rate                            : 48.0 KHz
    Compression mode                         : Lossy
    Stream size                              : 64.0 MiB (10%)
    Alignment                                : Aligned on interleaves
    Interleave, duration                     : 42 ms (1.00 video frame)
    Interleave, preload duration             : 504 ms
    Writing library                          : LAME3.99r
    Encoding settings                        : -m s -V 4 -q 0 -lowpass 18.6 -b 192




    Скриншоты:
    скриншот   скриншот   скриншот   скриншот   скриншот  
    скриншот  

    Раздача ведётся путём добавления новых серий. Добавлена 12 серия (03.09.2015).Просьба перекачать торрент файл.

    pb.wtf



  • Скачать Тиран через торрент http://i4.imageban.ru/out/2015/06/18/2a6515151aecc7fc976ce8f9d02c4396.jpg Скачать фильм Тиран через торрент бесплантно в хорошем качестве Описание: Действие данного сериала развивается на территории Ближнего Востока, которую абсолютно по праву принято считать одной из самых ... 9.6 10 16
    Info! Золотая раздача, скачанное не засчитывается.
    Торрент: Зарегистрирован [2015-09-03 01:02] · скачан: 156 раз
    Статус: √ проверено
    Размер: 7.09 GB
    Как cкачать? Как скачать Тиран через торрент | qTorrent

    % Раздел Тема Автор DL S | L
    Зарубежные сериалы [ 21.71 GB ] Тиран / Tyrant / Сезон: 2 / Серии 1-12 из 12 [2015 WEB-DL 1080p] MVO [BaibaKo] GEKADOL Скачать
    1 | 0

    28-11-2019 20:33  

    Отключить всю рекламу на сайте

      Дорогой пользователь! Огромная просьба, поблагодарите релизера, оцените раздачу и оставьте свои комментарий, если Вы скачали Тиран через торрент бесплатно! Внесите свою лепту в развитие PiratBit!
      Комментировать посты могут только пользователи прошедшие не сложную регистрацию
      Показать сообщения:    

      Тиран через торрент
      Скачать бесплатно Тиран
      Тиран скачать торрент
      Тиран смотреть онлайн
      Cкачать фильм Тиран бесплатно
      Тиран скачать торрент в хорошем качестве
      Тиран смотреть онлайн бесплатно в хорошем качестве


      Вы не можете начинать темы
      Вы не можете отвечать на сообщения
      Вы не можете редактировать свои сообщения
      Вы не можете удалять свои сообщения
      Вы не можете голосовать в опросах
      Вы не можете прикреплять файлы к сообщениям
      Вы можете скачивать файлы