Anonymous, доброй ночи, присоединяйтесь к нам в Telegram!, здесь всегда актуальный адрес сайта, оперативная поддержка и многое другое!

>

5.5

iTunes

7.4

iTunes

7.9

iTunes

1

7.7

1 сезон

6.8

iTunes

7.3

1 сезон

13

6.7

1 сезон

8.3

RePack

30

ULTIMATE

pack

9.9

Лицензия

ВАЖНО

ИГРА 18+

pack

7.3

RePack

MK11

7.7

RePack

jed

7.8

RePack

fifa19

8.5

RePack

RDR2

RePack

NEED FOR SPEED™ PAYBACK

4 сезон

9 сезон

Бесстыжие 9 сезон

Все сериалы

все сериалы на PB.wtf

RePack

FAR CRY 5

Anonymous, доброй ночи, мы катастрофически не успеваем собрать деньги на оплату серверов, помогите нам пожалуйста 5,10,15р., для нас важна любая помощь . В качестве благодарности мы отключим Вам всю рекламу на сайте (укажите свой ник в строку Ваше имя)!

×
  
Magnet ссылка

РобоКоп: Трилогия+Ремейк / RoboCop [1987, 1990, 1993, 2014 г. Фантастика, Боевик, BDRip 720p / 60 fps] pb.wtf

РобоКоп: Трилогия+Ремейк через торрент pb.wtf

Размер: 31.68 GB | Добавлен: 6 лет 4 мес. назад | Торрент скачан:95 раз
Смотреть онлайн РобоКоп: Трилогия+Ремейк | Скачать    Ребята, помогите собрать деньги на оплату серверов!!!

18-06-2015 14:02 РобоКоп: Трилогия+Ремейк Скачать торрент  

РобоКоп / RoboCop (1987-2014) BDRip 1080p | 60 fps | Трилогия+Ремейк




Жанр: Фантастика, Боевик, Криминал

Года производства: 1987, 1990, 1993, 2014

Произведено: США, Канада

Продолжительность: 01:43:17; 01:56:40; 01:44:50; 01:57:29

Описание

Робокоп — персонаж серии одноимённых фантастических фильмов: «Робокоп», «Робокоп 2», «Робокоп 3», «Робокоп 2014» . Киборг, созданный компанией «OCP» на базе центральной нервной системы погибшего при исполнении служебных обязанностей сотрудника Полицейского департамента Детройта Алекса Мерфи. Несмотря на присутствие в конструкции нервной ткани человека, компания отрицает наличие у киборга сознания и заявляет право собственности на него.

Единственная удачная реализация концепции роботизированного полицейского, осуществлённая благодаря особенностям психики донора. Другие модели, созданные в рамках программы «Робокоп», либо покончили с собой (созданные на основе ЦНС человека), либо оказались недостаточно гибкими при адаптации к окружающей среде.

Автор рипа: Tiberiumsun69
Перед скачиванием обязательно проверьте Сэмплы на своем оборудовании.
В 2,5 раза больше кадров!

В 2,5 раза плавнее! (59,94 fps)

Приятного просмотра. =)
РобоКоп / RoboCop

Год выпуска: 1987

Жанр: Фантастика, Боевик, Криминал

Производство: США

Описание фильма:

После гибели одного из лучших полицейских врачи-экспериментаторы создают из него неуязвимого киборга Робокопа, который в одиночку борется с бандой преступников. Однако прочная броня не спасает Робокопа от мучительных, обрывочных воспоминаний о прошлом: он постоянно видит кошмарные сны, в которых погибает от рук жестоких преступников. Теперь он не только ждёт правосудия,… но и жаждет мести!

Режиссер: Пол Верховен

Актеры: Питер Уэллер, Нэнси Аллен, Дэн О’Херлихи, Ронни Кокс, Кертвуд Смит, Мигель Феррер, Роберт Дукуй, Рэй Уайз, Фелтон Перри, Пол МакКрейн

Продолжительность: 01:43:17

Качество видео: BDRip

Перевод: Многоголосый закадровый

Язык субтитров:Rus (полные), Eng (полные)

Вид субтитров: Вшитые



Видеокодек: MPEG-4 AVC/H.264

Битрейт видео: ~11200 kb/s

Размер кадра: 1280*688

Аудио 1 Русский: AC3 5.1, 640 kb/s, Фокс

Аудио 2 Английский: AC3 5.1, 640 kb/s

Скриншоты

Уникальный идентификатор : 182240074969701467706787435835951604032 (0x891A2968215B58B08BDF25D3C9F6E140)

Полное имя : F:Робокоп 720p 60fpsРобокоп 1 720p 60fps (1987).mkv

Формат : Matroska

Версия формата : Version 4 / Version 2

Размер файла : 9,17 Гбайт

Продолжительность : 1 ч. 43 м.

Общий поток : 12,7 Мбит/сек

Дата кодирования : UTC 2014-07-06 07:26:34

Программа кодирования : mkvmerge v7.0.0 ('Where We Going') 64bit built on Jun 9 2014 15:16:27

Библиотека кодирования : libebml v1.3.0 + libmatroska v1.4.1

Обложка : Yes

DURATION : 01:43:16.960000000

NUMBER_OF_FRAMES : 193655

NUMBER_OF_BYTES : 495756800

_STATISTICS_WRITING_APP : mkvmerge v7.0.0 ('Where We Going') 64bit built on Jun 9 2014 15:16:27

_STATISTICS_WRITING_DATE_UTC : 2014-07-06 07:26:34

_STATISTICS_TAGS : BPS DURATION NUMBER_OF_FRAMES NUMBER_OF_BYTES

Видео

Идентификатор : 1

Формат : AVC

Формат/Информация : Advanced Video Codec

Профиль формата : High@L4.1

Параметр CABAC формата : Да

Параметр ReFrames формата : 9 кадров

Идентификатор кодека : V_MPEG4/ISO/AVC

Продолжительность : 1 ч. 43 м.

Битрейт : 11,2 Мбит/сек

Ширина : 1280 пикселей

Высота : 688 пикселей

Соотношение сторон : 1,85:1

Режим частоты кадров : Постоянный

Частота кадров : 59,880 кадров/сек

Частота кадров в оригинале : 59,940 кадров/сек

Цветовое пространство : YUV

Субдискретизация насыщенности : 4:2:0

Битовая глубина : 8 бит

Тип развёртки : Прогрессивная

Бит/(Пиксели*Кадры) : 0.212

Размер потока : 8,07 Гбайт (88%)

Библиотека кодирования : x264 core 130 r2273 b3065e6

Настройки программы : cabac=1 / ref=9 / deblock=1:-2:-2 / analyse=0x3:0 / me=umh / subme=9 / psy=1 / psy_rd=1.00:0.10 / mixed_ref=1 / me_range=24 / chroma_me=0 / trellis=1 / 8x8dct=1 / cqm=0 / deadzone=21,11 / fast_pskip=0 / chroma_qp_offset=-3 / threads=12 / lookahead_threads=1 / sliced_threads=0 / nr=0 / decimate=0 / interlaced=0 / bluray_compat=0 / constrained_intra=0 / bframes=6 / b_pyramid=2 / b_adapt=2 / b_bias=0 / direct=1 / weightb=1 / open_gop=0 / weightp=2 / keyint=599 / keyint_min=59 / scenecut=40 / intra_refresh=0 / rc=crf / mbtree=0 / crf=16.0 / qcomp=0.60 / qpmin=0 / qpmax=69 / qpstep=4 / ip_ratio=1.40 / pb_ratio=1.30 / aq=1:0.90

Язык : English

Default : Да

Forced : Нет

DURATION : 01:43:16.881000000

NUMBER_OF_FRAMES : 371441

NUMBER_OF_BYTES : 8854728977

_STATISTICS_WRITING_APP : mkvmerge v7.0.0 ('Where We Going') 64bit built on Jun 9 2014 15:16:27

_STATISTICS_WRITING_DATE_UTC : 2014-07-06 07:26:34

_STATISTICS_TAGS : BPS DURATION NUMBER_OF_FRAMES NUMBER_OF_BYTES

Аудио #1

Идентификатор : 2

Формат : AC-3

Формат/Информация : Audio Coding 3

Расширение режима : CM (complete main)

Параметр Endianness формата : Big

Идентификатор кодека : A_AC3

Продолжительность : 1 ч. 43 м.

Вид битрейта : Постоянный

Битрейт : 640 Кбит/сек

Каналы : 6 каналов

Расположение каналов : Front: L C R, Side: L R, LFE

Частота : 48,0 КГц

Битовая глубина : 16 бит

Метод сжатия : С потерями

Размер потока : 473 Мбайт (5%)

Заголовок : MVO (FOX)

Язык : Russian

Default : Да

Forced : Нет

Аудио #2

Идентификатор : 5

Формат : AC-3

Формат/Информация : Audio Coding 3

Расширение режима : CM (complete main)

Параметр Endianness формата : Big

Идентификатор кодека : A_AC3

Продолжительность : 1 ч. 43 м.

Вид битрейта : Постоянный

Битрейт : 640 Кбит/сек

Каналы : 6 каналов

Расположение каналов : Front: L C R, Side: L R, LFE

Частота : 48,0 КГц

Битовая глубина : 16 бит

Метод сжатия : С потерями

Размер потока : 473 Мбайт (5%)

Заголовок : Original

Язык : English

Default : Нет

Forced : Нет

Текст #1

Идентификатор : 3

Формат : UTF-8

Идентификатор кодека : S_TEXT/UTF8

Идентификатор кодека/Информация : UTF-8 Plain Text

Заголовок : Full

Язык : Russian

Default : Нет

Forced : Нет

Текст #2

Идентификатор : 4

Формат : UTF-8

Идентификатор кодека : S_TEXT/UTF8

Идентификатор кодека/Информация : UTF-8 Plain Text

Заголовок : Full

Язык : English

Default : Нет

Forced : Нет

Меню

00:00:00.000 : en:Main Title/New Guy

00:06:45.113 : en:ED-209

00:14:07.555 : en:Hot Pursuit

00:17:32.551 : en:Mutilation of Murphy

00:26:40.515 : en:New Kinda Cop

00:34:28.024 : en:On the Streets

00:40:32.805 : en:Ocp Showdown

00:45:15.337 : en:Bad Memories

00:49:46.650 : en:Self-Discovery

00:57:48.131 : en:Blast From the Past

01:01:41.239 : en:Killer Caught

01:08:25.184 : en:Battle Bots

01:15:59.888 : en:Un-Masked

01:22:46.544 : en:Once and for All

01:33:53.961 : en:Fired

01:37:04.902 : en:End Credits
РобоКоп 2 / RoboCop 2

Год выпуска: 1990

Жанр: Фантастика, Боевик, Криминал

Производство: США

Описание фильма:

Робот — полицейский продолжает патрулировать улицы Детройта. На этот раз ему предстоит уничтожить фабрику, которая незаконно производит новый вид наркотиков, а также сразиться с роботом — убийцей, созданным в секретной лаборатории, чтобы убрать Робокопа.

Режиссер: Ирвин Кершнер

Актеры: Питер Уэллер, Нэнси Аллен, Дэн О’Херлихи, Том Нунен, Белинда Бауэр, Гэбриел Дэймон, Джон Гловер, Марио Мачадо, Лиза Гиббонс, Джон Ингл

Продолжительность: 01:56:40

Качество видео: BDRip

Перевод: Дублированный

Язык субтитров: Rus (полные), Eng (полные)

Вид субтитров: Вшитые



Видеокодек: MPEG-4 AVC/H.264

Битрейт видео: ~12200 kb/s

Размер кадра: 1280*696

Аудио 1 Русский: AC3 5.1, 640 kb/s

Аудио 2 Английский: AC3 5.1, 448 kb/s

Уникальный идентификатор : 244050824816625034840114716342697959637 (0xB79A7AA95B3F8B56BE685F284AD1A0D5)

Полное имя : F:Робокоп 720p 60fpsРобокоп 2 720p 60fps.mkv

Формат : Matroska

Версия формата : Version 4 / Version 2

Размер файла : 10,9 Гбайт

Продолжительность : 1 ч. 56 м.

Общий поток : 13,4 Мбит/сек

Дата кодирования : UTC 2014-07-06 07:53:35

Программа кодирования : mkvmerge v7.0.0 ('Where We Going') 64bit built on Jun 9 2014 15:16:27

Библиотека кодирования : libebml v1.3.0 + libmatroska v1.4.1

Обложка : Yes

DURATION : 01:56:40.064000000

NUMBER_OF_FRAMES : 218752

NUMBER_OF_BYTES : 392003584

_STATISTICS_WRITING_APP : mkvmerge v7.0.0 ('Where We Going') 64bit built on Jun 9 2014 15:16:27

_STATISTICS_WRITING_DATE_UTC : 2014-07-06 07:53:35

_STATISTICS_TAGS : BPS DURATION NUMBER_OF_FRAMES NUMBER_OF_BYTES

Attachment : Yes

Видео

Идентификатор : 1

Формат : AVC

Формат/Информация : Advanced Video Codec

Профиль формата : High@L4.1

Параметр CABAC формата : Да

Параметр ReFrames формата : 9 кадров

Идентификатор кодека : V_MPEG4/ISO/AVC

Продолжительность : 1 ч. 56 м.

Битрейт : 12,2 Мбит/сек

Ширина : 1280 пикселей

Высота : 696 пикселей

Соотношение сторон : 1,85:1

Режим частоты кадров : Постоянный

Частота кадров : 59,880 кадров/сек

Частота кадров в оригинале : 59,940 кадров/сек

Цветовое пространство : YUV

Субдискретизация насыщенности : 4:2:0

Битовая глубина : 8 бит

Тип развёртки : Прогрессивная

Бит/(Пиксели*Кадры) : 0.229

Размер потока : 9,95 Гбайт (91%)

Библиотека кодирования : x264 core 130 r2273 b3065e6

Настройки программы : cabac=1 / ref=9 / deblock=1:-2:-2 / analyse=0x3:0 / me=umh / subme=9 / psy=1 / psy_rd=1.00:0.10 / mixed_ref=1 / me_range=24 / chroma_me=0 / trellis=1 / 8x8dct=1 / cqm=0 / deadzone=21,11 / fast_pskip=0 / chroma_qp_offset=-3 / threads=12 / lookahead_threads=1 / sliced_threads=0 / nr=0 / decimate=0 / interlaced=0 / bluray_compat=0 / constrained_intra=0 / bframes=6 / b_pyramid=2 / b_adapt=2 / b_bias=0 / direct=1 / weightb=1 / open_gop=0 / weightp=2 / keyint=599 / keyint_min=59 / scenecut=40 / intra_refresh=0 / rc=crf / mbtree=0 / crf=16.0 / qcomp=0.60 / qpmin=0 / qpmax=69 / qpstep=4 / ip_ratio=1.40 / pb_ratio=1.30 / aq=1:0.90

Язык : English

Default : Да

Forced : Нет

DURATION : 01:56:39.967000000

NUMBER_OF_FRAMES : 419578

NUMBER_OF_BYTES : 10908448500

_STATISTICS_WRITING_APP : mkvmerge v7.0.0 ('Where We Going') 64bit built on Jun 9 2014 15:16:27

_STATISTICS_WRITING_DATE_UTC : 2014-07-06 07:53:35

_STATISTICS_TAGS : BPS DURATION NUMBER_OF_FRAMES NUMBER_OF_BYTES

Аудио #1

Идентификатор : 2

Формат : AC-3

Формат/Информация : Audio Coding 3

Расширение режима : CM (complete main)

Параметр Endianness формата : Big

Идентификатор кодека : A_AC3

Продолжительность : 1 ч. 56 м.

Вид битрейта : Постоянный

Битрейт : 448 Кбит/сек

Каналы : 6 каналов

Расположение каналов : Front: L C R, Side: L R, LFE

Частота : 48,0 КГц

Битовая глубина : 16 бит

Метод сжатия : С потерями

Размер потока : 374 Мбайт (3%)

Заголовок : Dub

Язык : Russian

Default : Да

Forced : Нет

Аудио #2

Идентификатор : 5

Формат : AC-3

Формат/Информация : Audio Coding 3

Расширение режима : CM (complete main)

Параметр Endianness формата : Big

Идентификатор кодека : A_AC3

Продолжительность : 1 ч. 56 м.

Вид битрейта : Постоянный

Битрейт : 448 Кбит/сек

Каналы : 6 каналов

Расположение каналов : Front: L C R, Side: L R, LFE

Частота : 48,0 КГц

Битовая глубина : 16 бит

Метод сжатия : С потерями

Размер потока : 374 Мбайт (3%)

Заголовок : Original

Язык : English

Default : Нет

Forced : Нет

Текст #1

Идентификатор : 3

Формат : UTF-8

Идентификатор кодека : S_TEXT/UTF8

Идентификатор кодека/Информация : UTF-8 Plain Text

Заголовок : Full

Язык : Russian

Default : Нет

Forced : Нет

Текст #2

Идентификатор : 4

Формат : UTF-8

Идентификатор кодека : S_TEXT/UTF8

Идентификатор кодека/Информация : UTF-8 Plain Text

Заголовок : Full

Язык : English

Default : Нет

Forced : Нет

Меню

00:00:00.000 : en:Chapter 1

00:08:17.663 : en:Chapter 2

00:13:54.750 : en:Chapter 3

00:20:09.416 : en:Chapter 4

00:27:09.377 : en:Chapter 5

00:31:46.821 : en:Chapter 6

00:43:42.620 : en:Chapter 7

00:50:42.539 : en:Chapter 8

00:57:33.074 : en:Chapter 9

01:06:23.938 : en:Chapter 10

01:12:43.192 : en:Chapter 11

01:19:34.102 : en:Chapter 12

01:27:10.725 : en:Chapter 13

01:36:35.122 : en:Chapter 14

01:48:11.193 : en:Chapter 15

01:50:28.204 : en:Chapter 16
РобоКоп 3 / RoboCop 3




Год выпуска: 1993

Жанр: Фантастика, Боевик, Криминал

Производство: США

Описание фильма:

Могущественная корпорация «OKP» и их «сумасшедший» управляющий Макдагет предпринимает меры помочь людям, но с другой стороны она всего лишь хочет приобрести капитал города для себя. Робот — полицейский оказывает сопротивление управляющему этой организацией Макдагетту, за это управляющий убивает Льюис напарницу Робота — полицейского и приказывает убить и того. Робокоп объединяется с повстанцами и полицией для войны с Макдагетом и его «лживой» организацией, и для этого он снаряжается реактивным ранцем…

Режиссер: Фред Деккер

Актеры: Роберт Джон Бёрк, Нэнси Аллен, Рип Торн, Джон Касл, Стивен Рут, Си Си Эйч Паундер, Дэниэл фон Барген, Реми Райан, Роберт Дукуй, Марио Мачадо

Продолжительность: 01:44:50

Качество видео: BDRip

Перевод: Дублированный

Язык субтитров: Rus (полные), Eng (полные)

Вид субтитров: Вшитые



Видеокодек: MPEG-4 AVC/H.264

Битрейт видео: ~7786 kb/s

Размер кадра: 1280*696

Аудио 1 Русский: AC3 5.1, 448 kb/s

Аудио 2 Английский: AC3 5.1, 640 kb/s

Уникальный идентификатор : 189009618425284683011544105816234159674 (0x8E31EDAAFBB1029ABFBEBC60D3086E3A)

Полное имя : F:Робокоп 720p 60fpsРобокоп 3 720p 60fps.mkv

Формат : Matroska

Версия формата : Version 4 / Version 2

Размер файла : 6,63 Гбайт

Продолжительность : 1 ч. 44 м.

Общий поток : 9055 Кбит/сек

Дата кодирования : UTC 2014-07-06 07:38:55

Программа кодирования : mkvmerge v7.0.0 ('Where We Going') 64bit built on Jun 9 2014 15:16:27

Библиотека кодирования : libebml v1.3.0 + libmatroska v1.4.1

DURATION : 01:44:50.176000000

NUMBER_OF_FRAMES : 196568

NUMBER_OF_BYTES : 503214080

_STATISTICS_WRITING_APP : mkvmerge v7.0.0 ('Where We Going') 64bit built on Jun 9 2014 15:16:27

_STATISTICS_WRITING_DATE_UTC : 2014-07-06 07:38:55

_STATISTICS_TAGS : BPS DURATION NUMBER_OF_FRAMES NUMBER_OF_BYTES

Видео

Идентификатор : 1

Формат : AVC

Формат/Информация : Advanced Video Codec

Профиль формата : High@L4.1

Параметр CABAC формата : Да

Параметр ReFrames формата : 9 кадров

Идентификатор кодека : V_MPEG4/ISO/AVC

Продолжительность : 1 ч. 44 м.

Битрейт : 7786 Кбит/сек

Ширина : 1280 пикселей

Высота : 696 пикселей

Соотношение сторон : 1,85:1

Режим частоты кадров : Постоянный

Частота кадров : 59,880 кадров/сек

Частота кадров в оригинале : 59,940 кадров/сек

Цветовое пространство : YUV

Субдискретизация насыщенности : 4:2:0

Битовая глубина : 8 бит

Тип развёртки : Прогрессивная

Бит/(Пиксели*Кадры) : 0.146

Размер потока : 5,70 Гбайт (86%)

Библиотека кодирования : x264 core 130 r2273 b3065e6

Настройки программы : cabac=1 / ref=9 / deblock=1:-2:-2 / analyse=0x3:0 / me=umh / subme=9 / psy=1 / psy_rd=1.00:0.10 / mixed_ref=1 / me_range=24 / chroma_me=0 / trellis=1 / 8x8dct=1 / cqm=0 / deadzone=21,11 / fast_pskip=0 / chroma_qp_offset=-3 / threads=12 / lookahead_threads=1 / sliced_threads=0 / nr=0 / decimate=0 / interlaced=0 / bluray_compat=0 / constrained_intra=0 / bframes=6 / b_pyramid=2 / b_adapt=2 / b_bias=0 / direct=1 / weightb=1 / open_gop=0 / weightp=2 / keyint=599 / keyint_min=59 / scenecut=40 / intra_refresh=0 / rc=crf / mbtree=0 / crf=16.0 / qcomp=0.60 / qpmin=0 / qpmax=69 / qpstep=4 / ip_ratio=1.40 / pb_ratio=1.30 / aq=1:0.90

Язык : English

Default : Да

Forced : Нет

DURATION : 01:44:50.090000000

NUMBER_OF_FRAMES : 377028

NUMBER_OF_BYTES : 6260451719

_STATISTICS_WRITING_APP : mkvmerge v7.0.0 ('Where We Going') 64bit built on Jun 9 2014 15:16:27

_STATISTICS_WRITING_DATE_UTC : 2014-07-06 07:38:55

_STATISTICS_TAGS : BPS DURATION NUMBER_OF_FRAMES NUMBER_OF_BYTES

Аудио #1

Идентификатор : 2

Формат : AC-3

Формат/Информация : Audio Coding 3

Расширение режима : CM (complete main)

Параметр Endianness формата : Big

Идентификатор кодека : A_AC3

Продолжительность : 1 ч. 44 м.

Вид битрейта : Постоянный

Битрейт : 448 Кбит/сек

Каналы : 6 каналов

Расположение каналов : Front: L C R, Side: L R, LFE

Частота : 48,0 КГц

Битовая глубина : 16 бит

Метод сжатия : С потерями

Размер потока : 336 Мбайт (5%)

Заголовок : Dub

Язык : Russian

Default : Да

Forced : Да

Аудио #2

Идентификатор : 5

Формат : AC-3

Формат/Информация : Audio Coding 3

Расширение режима : CM (complete main)

Параметр Endianness формата : Big

Идентификатор кодека : A_AC3

Продолжительность : 1 ч. 44 м.

Вид битрейта : Постоянный

Битрейт : 640 Кбит/сек

Каналы : 6 каналов

Расположение каналов : Front: L C R, Side: L R, LFE

Частота : 48,0 КГц

Битовая глубина : 16 бит

Метод сжатия : С потерями

Размер потока : 480 Мбайт (7%)

Заголовок : Original

Язык : English

Default : Нет

Forced : Нет

Текст #1

Идентификатор : 3

Формат : UTF-8

Идентификатор кодека : S_TEXT/UTF8

Идентификатор кодека/Информация : UTF-8 Plain Text

Заголовок : Full

Язык : Russian

Default : Нет

Forced : Нет

Текст #2

Идентификатор : 4

Формат : UTF-8

Идентификатор кодека : S_TEXT/UTF8

Идентификатор кодека/Информация : UTF-8 Plain Text

Заголовок : Full

Язык : English

Default : Нет

Forced : Нет

Меню

00:00:00.000 : en:Chapter 1

00:08:00.938 : en:Chapter 2

00:12:33.586 : en:Chapter 3

00:21:09.601 : en:Chapter 4

00:24:01.773 : en:Chapter 5

00:32:53.680 : en:Chapter 6

00:40:17.373 : en:Chapter 7

00:46:17.608 : en:Chapter 8

00:52:48.874 : en:Chapter 9

01:01:45.910 : en:Chapter 10

01:13:26.360 : en:Chapter 11

01:19:11.163 : en:Chapter 12

01:27:13.978 : en:Chapter 13

01:31:47.793 : en:Chapter 14

01:35:47.158 : en:Chapter 15

01:37:34.473 : en:Chapter 16
РобоКоп (2014) / RoboCop

Год выпуска: 2014

Жанр: Фантастика, Боевик, Криминал

Производство: США, Канада

Описание фильма:

2028 год. Международный конгломерат ОмниКорп лидирует в производстве робототехники. Благодаря разработкам компании Америка успешно побеждает в войнах по всему миру. Но теперь пришло время применить технологию на американской земле. Алекс Мерфи — любящий муж, отец и отличный полицейский, оберегающий порядок в Детройте, получает на службе смертельные ранения. Специалисты ОмниКорпа, используя новейшие разработки, сохраняют ему жизнь. Алекс возвращается на службу в родной город не только с новыми сверхспособностями, но и с проблемами, с которыми не сталкивался ни один живой человек.

Режиссер: Жозе Падилья

Актеры: Юэль Киннаман, Гари Олдман, Майкл Китон, Эбби Корниш, Джеки Эрл Хейли, Сэмюэл Л. Джексон, Майкл К. Уильямс, Дженнифер Или, Марианн Жан-Батист, Айми Гарсиа

Продолжительность: 01:57:29

Качество видео: BDRip

Перевод: Дублированный

Язык субтитров: Rus (Форс.), Rus (полные), Eng (форс.), Eng (полные)

Вид субтитров: Вшитые



Видеокодек: MPEG-4 AVC/H.264

Битрейт видео: ~4667 kb/s

Размер кадра: 1280*536

Аудио 1 Русский: AC3 5.1, 640 kb/s

Аудио 2 Английский: AC3 5.1, 640 kb/s

Уникальный идентификатор : 250165560419000783365890067024892509978 (0xBC34226727F485CAB81C7CC599F5BF1A)

Полное имя : F:Робокоп 720p 60fpsРобокоп 1 720p 60fps (2014).mkv

Формат : Matroska

Версия формата : Version 4 / Version 2

Размер файла : 4,98 Гбайт

Продолжительность : 1 ч. 57 м.

Общий поток : 6068 Кбит/сек

Дата кодирования : UTC 2014-07-06 03:57:44

Программа кодирования : mkvmerge v7.0.0 ('Where We Going') 64bit built on Jun 9 2014 15:16:27

Библиотека кодирования : libebml v1.3.0 + libmatroska v1.4.1

DURATION : 01:57:29.248000000

NUMBER_OF_FRAMES : 220289

NUMBER_OF_BYTES : 563939840

_STATISTICS_WRITING_APP : mkvmerge v7.0.0 ('Where We Going') 64bit built on Jun 9 2014 15:16:27

_STATISTICS_WRITING_DATE_UTC : 2014-07-06 03:57:44

_STATISTICS_TAGS : BPS DURATION NUMBER_OF_FRAMES NUMBER_OF_BYTES

Attachment : Yes

Видео

Идентификатор : 1

Формат : AVC

Формат/Информация : Advanced Video Codec

Профиль формата : High@L4.1

Параметр CABAC формата : Да

Параметр ReFrames формата : 9 кадров

Идентификатор кодека : V_MPEG4/ISO/AVC

Продолжительность : 1 ч. 57 м.

Битрейт : 4667 Кбит/сек

Ширина : 1280 пикселей

Высота : 536 пикселей

Соотношение сторон : 2,40:1

Режим частоты кадров : Постоянный

Частота кадров : 59,880 кадров/сек

Частота кадров в оригинале : 59,940 кадров/сек

Цветовое пространство : YUV

Субдискретизация насыщенности : 4:2:0

Битовая глубина : 8 бит

Тип развёртки : Прогрессивная

Бит/(Пиксели*Кадры) : 0.114

Размер потока : 3,83 Гбайт (77%)

Библиотека кодирования : x264 core 130 r2273 b3065e6

Настройки программы : cabac=1 / ref=9 / deblock=1:-2:-2 / analyse=0x3:0 / me=umh / subme=9 / psy=1 / psy_rd=1.00:0.10 / mixed_ref=1 / me_range=24 / chroma_me=0 / trellis=1 / 8x8dct=1 / cqm=0 / deadzone=21,11 / fast_pskip=0 / chroma_qp_offset=-3 / threads=12 / lookahead_threads=1 / sliced_threads=0 / nr=0 / decimate=0 / interlaced=0 / bluray_compat=0 / constrained_intra=0 / bframes=6 / b_pyramid=2 / b_adapt=2 / b_bias=0 / direct=1 / weightb=1 / open_gop=0 / weightp=2 / keyint=599 / keyint_min=59 / scenecut=40 / intra_refresh=0 / rc=crf / mbtree=0 / crf=16.0 / qcomp=0.60 / qpmin=0 / qpmax=69 / qpstep=4 / ip_ratio=1.40 / pb_ratio=1.30 / aq=1:0.90

Язык : English

Default : Да

Forced : Нет

DURATION : 01:57:29.149000000

NUMBER_OF_FRAMES : 422526

NUMBER_OF_BYTES : 4214900158

_STATISTICS_WRITING_APP : mkvmerge v7.0.0 ('Where We Going') 64bit built on Jun 9 2014 15:16:27

_STATISTICS_WRITING_DATE_UTC : 2014-07-06 03:57:44

_STATISTICS_TAGS : BPS DURATION NUMBER_OF_FRAMES NUMBER_OF_BYTES

Аудио #1

Идентификатор : 2

Формат : AC-3

Формат/Информация : Audio Coding 3

Расширение режима : CM (complete main)

Параметр Endianness формата : Big

Идентификатор кодека : A_AC3

Продолжительность : 1 ч. 57 м.

Вид битрейта : Постоянный

Битрейт : 640 Кбит/сек

Каналы : 6 каналов

Расположение каналов : Front: L C R, Side: L R, LFE

Частота : 48,0 КГц

Битовая глубина : 16 бит

Метод сжатия : С потерями

Размер потока : 538 Мбайт (11%)

Заголовок : Dub

Язык : Russian

Default : Да

Forced : Нет

Аудио #2

Идентификатор : 7

Формат : AC-3

Формат/Информация : Audio Coding 3

Расширение режима : CM (complete main)

Параметр Endianness формата : Big

Идентификатор кодека : A_AC3

Продолжительность : 1 ч. 57 м.

Вид битрейта : Постоянный

Битрейт : 640 Кбит/сек

Каналы : 6 каналов

Расположение каналов : Front: L C R, Side: L R, LFE

Частота : 48,0 КГц

Битовая глубина : 16 бит

Метод сжатия : С потерями

Размер потока : 538 Мбайт (11%)

Заголовок : Original

Язык : English

Default : Нет

Forced : Нет

Текст #1

Идентификатор : 3

Формат : UTF-8

Идентификатор кодека : S_TEXT/UTF8

Идентификатор кодека/Информация : UTF-8 Plain Text

Заголовок : Forced

Язык : Russian

Default : Да

Forced : Нет

Текст #2

Идентификатор : 4

Формат : UTF-8

Идентификатор кодека : S_TEXT/UTF8

Идентификатор кодека/Информация : UTF-8 Plain Text

Заголовок : Full

Язык : Russian

Default : Нет

Forced : Нет

Текст #3

Идентификатор : 5

Формат : UTF-8

Идентификатор кодека : S_TEXT/UTF8

Идентификатор кодека/Информация : UTF-8 Plain Text

Заголовок : Forced

Язык : English

Default : Нет

Forced : Нет

Текст #4

Идентификатор : 6

Формат : UTF-8

Идентификатор кодека : S_TEXT/UTF8

Идентификатор кодека/Информация : UTF-8 Plain Text

Заголовок : Full

Язык : English

Default : Нет

Forced : Нет

Меню

00:00:00.000 : en:Chapter 1

00:04:33.898 : en:Chapter 2

00:08:51.739 : en:Chapter 3

00:14:33.914 : en:Chapter 4

00:17:01.603 : en:Chapter 5

00:19:27.040 : en:Chapter 6

00:21:52.936 : en:Chapter 7

00:26:13.571 : en:Chapter 8

00:30:47.971 : en:Chapter 9

00:32:48.675 : en:Chapter 10

00:36:12.378 : en:Chapter 11

00:39:06.969 : en:Chapter 12

00:43:03.497 : en:Chapter 13

00:45:40.654 : en:Chapter 14

00:52:10.377 : en:Chapter 15

00:57:21.187 : en:Chapter 16

01:01:23.888 : en:Chapter 17

01:02:59.901 : en:Chapter 18

01:06:05.920 : en:Chapter 19

01:10:30.476 : en:Chapter 20

01:13:26.527 : en:Chapter 21

01:18:24.866 : en:Chapter 22

01:21:56.202 : en:Chapter 23

01:26:04.993 : en:Chapter 24

01:28:06.906 : en:Chapter 25

01:32:02.975 : en:Chapter 26

01:35:52.955 : en:Chapter 27

01:38:30.654 : en:Chapter 28

01:41:30.751 : en:Chapter 29

01:43:44.635 : en:Chapter 30

01:46:41.561 : en:Chapter 31

01:50:12.689 : en:Chapter 32
Скриншоты:

pb.wtf



Скачать РобоКоп: Трилогия+Ремейк через торрент http://i1.imageban.ru/out/2014/07/06/bca7b84eab1381f2740725e1fb9919f6.jpg Скачать, смотреть онлайн РобоКоп: Трилогия+Ремейк бесплантно в хорошем качестве ОписаниеРобокоп — персонаж серии одноимённых фантастических фильмов: «Робокоп», «Робокоп 2», «Робокоп 3», «Робокоп 2014» . Киборг, ... 9.9 10 22
Info! Золотая раздача, скачанное не засчитывается.
Торрент: Зарегистрирован [2015-06-18 14:02] · скачан: 95 раз
Статус: √ проверено
Размер: 31.68 GB
Как cкачать? Как скачать РобоКоп: Трилогия+Ремейк через торрент | UTorrent

% Раздел Тема Автор DL S | L
Сборники и Сиквелы (48-60 fps) [ 46.44 GB ] РобоКоп: Трилогия+Ремейк / RoboCop [1987 1990 1993 2014 BDRip 1080p / 60 fps] СидБот60fps Скачать
1 | 0

28-11-2019 20:33  

Отключить всю рекламу на сайте

18-06-2015 15:42 РобоКоп: Трилогия+Ремейк Скачать торрент  

Как можно дерьмо 2014 года ставить в раздачу вместе с классикой...pb.wtf



18-06-2015 19:25 РобоКоп: Трилогия+Ремейк Скачать торрент  

залейте сэмплpb.wtf



21-06-2015 15:29 РобоКоп: Трилогия+Ремейк Скачать торрент  

эх озвучка не та в 1й части...pb.wtf



22-04-2018 09:09 РобоКоп: Трилогия+Ремейк Скачать торрент  

Pineapple писал(а):

Как можно дерьмо 2014 года ставить в раздачу вместе с классикой...

Сударь , по моему ,,дерьмо,, тут только вы!!!Ваше скудное мнение ни кому не нужно.Если нефига сказать путного - молчи!pb.wtf



22-04-2018 10:05 РобоКоп: Трилогия+Ремейк Скачать торрент  

ну я бы не сказал так прямо что дерьмо. надо понимать что такой ламповой атмосферы в кино уже не будет - просто время сейчас другое. наше ламповое кино современному зрителю кажется наивным, и режиссеры прекрасно это понимаютpb.wtf



    Дорогой пользователь! Огромная просьба, поблагодарите релизера, оцените раздачу и оставьте свои комментарий, если Вы скачали РобоКоп: Трилогия+Ремейк через торрент бесплатно!
    Комментировать посты могут только пользователи прошедшие не сложную регистрацию
    Показать сообщения:    

    РобоКоп: Трилогия+Ремейк через торрент
    Скачать бесплатно РобоКоп: Трилогия+Ремейк
    РобоКоп: Трилогия+Ремейк скачать торрент
    РобоКоп: Трилогия+Ремейк смотреть онлайн
    Cкачать фильм РобоКоп: Трилогия+Ремейк бесплатно
    РобоКоп: Трилогия+Ремейк скачать торрент в хорошем качестве
    РобоКоп: Трилогия+Ремейк смотреть онлайн бесплатно в хорошем качестве


    Вы не можете начинать темы
    Вы не можете отвечать на сообщения
    Вы не можете редактировать свои сообщения
    Вы не можете удалять свои сообщения
    Вы не можете голосовать в опросах
    Вы не можете прикреплять файлы к сообщениям
    Вы можете скачивать файлы