Ссылка на приватное зеркало всего за 1$. Внимание количество ограничено!!!

iTunes

iTunes

iTunes

1

iTunes

iTunes

iTunes

iTunes

iTunes

30
pack

Новость дня

ВАЖНО

!!Акция!!

Alien_RageХит недели

RePack

Resident Evil 21

ИГРА 18+

pack

RePack

jed

!!Акция!!

Alien_Rage

RePack

fifa19

RePack

Assassins Creed: Odyssey

RePack

NEED FOR SPEED™ PAYBACK

4 сезон

9 сезон

Бесстыжие 9 сезон

Все сериалы

все сериалы на PB.wtf

RePack

FAR CRY 5
  

Под электрическими облаками (Алексей Герман мл.) [2015, драма, WEB-DLRip] iTunes pb.wtf

Под электрическими облаками через торрент pb.wtf

Размер: 1.47 GB | Добавлен: 4 года 11 мес. назад | Торрент скачан:485 раз
Скачать  

19-06-2015 05:54 Под электрическими облаками Скачать торрент  


Под электрическими облаками



Год выпуска: 2015
Страны: Россия , Польша , Украина
Жанры: драма
Продолжительность: 02:17:41
Перевод: Оригинал

Режиссер: Алексей Герман мл.
Сценарий: Алексей Герман мл.
В ролях:
Луис Франк , Мераб Нинидзе , Чулпан Хаматова , Виктория Короткова , Виктор Бугаков


Действие фильма происходит в 2017 году. Мир находится в ожидании большой войны. Герои фильма живут совершенно разными жизнями, но каждый из них принадлежит к тем, кого в классической русской литературе называют «лишними людьми». Это история об их жизни, преодолениях и борьбе. Это также история одного недостроенного здания, вокруг которого оказались разбросаны их судьбы.
Премьера (мир): 10 февраля 2015
Премьера (РФ): 4 июня 2015

Качество: WEB-DLRip
Формат: AVI
Видео кодек: XviD
Аудио кодек: AC3
Видео: 720x304 (2.35:1), 24.000 fps, XviD, 1130 Кбит/с
Аудио : AC3, 384 Kbps, 48.0 KHz, 6 ch - iTunes
☭ Фильм находился в производстве более пяти лет и был отобран в конкурсную программу Берлинского кинофестиваля еще до завершения монтажного периода.
General
Complete name : Под электрическими облаками.avi
Format : AVI
Format/Info : Audio Video Interleave
File size : 1.47 GiB
Duration : 2h 17mn
Overall bit rate : 1 523 Kbps
Writing application : VirtualDubMod 1.5.10.3 | www.virtualdub-fr.org || (build 2550/release)
Writing library : VirtualDubMod build 2550/release

Video
ID : 0
Format : MPEG-4 Visual
Format profile : Advanced Simple@L5
Format settings, BVOP : 2
Format settings, QPel : No
Format settings, GMC : No warppoints
Format settings, Matrix : Default (MPEG)
Codec ID : XVID
Codec ID/Hint : XviD
Duration : 2h 17mn
Bit rate : 1130 Кбит/с
Width : 720 pixels
Height : 304 pixels
Display aspect ratio : 2.35:1
Frame rate : 24.000 fps
Color space : YUV
Chroma subsampling : 4:2:0
Bit depth : 8 bits
Scan type : Progressive
Compression mode : Lossy
Bits/(Pixel*Frame) : 0.204
Stream size : 1.03 GiB (70%)
Writing library : XviD 1.2.1 (UTC 2008-12-04)

Audio
ID : 1
Format : AC-3
Format/Info : Audio Coding 3
Mode extension : CM (complete main)
Format settings, Endianness : Big
Codec ID : 2000
Duration : 2h 17mn
Bit rate mode : Constant
Bit rate : 384 Kbps
Channel(s) : 6 channels
Channel positions : Front: L C R, Side: L R, LFE
Sampling rate : 48.0 KHz
Bit depth : 16 bits
Compression mode : Lossy
Stream size : 378 MiB (25%)
Alignment : Split accross interleaves
pb.wtf



Скачать Под электрическими облаками через торрент http://i70.fastpic.ru/big/2015/0619/0c/54816b5c5cd9e2bae68f013f1dbf8f0c.jpg Скачать фильм Под электрическими облаками через торрент бесплантно в хорошем качестве В ролях: Луис Франк , Мераб Нинидзе , Чулпан Хаматова , Виктория Короткова , Виктор Бугаков Действие фильма происходит в ... 7.8 10 16
Торрент: Зарегистрирован [2015-06-19 05:54] · скачан: 485 раз
Статус: √ проверено
Размер: 1.47 GB
Как cкачать? Как скачать Под электрическими облаками через торрент | qTorrent

% Раздел Тема Автор DL S | L
Наши фильмы (HD, WEB-DL 720p, 1080p) [ 4.24 GB ] Под электрическими облаками [2015 WEB-DL 720р] кэп Скачать
1 | 0

28-11-2019 20:33  

Отключить всю рекламу на сайте

19-06-2015 09:30 Под электрическими облаками Скачать торрент  

начал смотреть .сцена убийства ладно еще-сильна а дальше...что ж такое нудотствоpb.wtf



20-06-2015 04:36 Под электрическими облаками Скачать торрент  

"Фильм находился в производстве более пяти лет и был отобран в конкурсную программу Берлинского кинофестиваля еще до завершения монтажного периода"
вот эта фраза и настораживает. если европедикам вкатило, то далеко не факт, что нормальным людям понравится. скачаю, гляну на всякий случай - европе... вопщем там тоже люди еще должны остатьсяpb.wtf



    Дорогой пользователь! Огромная просьба, поблагодарите релизера, оцените раздачу и оставьте свои комментарий, если Вы скачали Под электрическими облаками через торрент бесплатно! Внесите свою лепту в развитие PiratBit!
    Комментировать посты могут только пользователи прошедшие не сложную регистрацию
    Показать сообщения:    

    Под электрическими облаками через торрент
    Скачать бесплатно Под электрическими облаками
    Под электрическими облаками скачать торрент
    Под электрическими облаками смотреть онлайн
    Cкачать фильм Под электрическими облаками бесплатно
    Под электрическими облаками скачать торрент в хорошем качестве
    Под электрическими облаками смотреть онлайн бесплатно в хорошем качестве


    Вы не можете начинать темы
    Вы не можете отвечать на сообщения
    Вы не можете редактировать свои сообщения
    Вы не можете удалять свои сообщения
    Вы не можете голосовать в опросах
    Вы не можете прикреплять файлы к сообщениям
    Вы можете скачивать файлы