Всегда рабочее зеркало без VPN и Proxy просто перед .vidak.icu напиши любое слово или цифру, Пример http://nut.vidak.icu

>

7.4

iTunes

7.4

2 сезон

6.6

iTunes

1

7.4

2 сезон

7.2

iTunes

6.0

MVO

13

6.1

iTunes

8.3

Пиратка

30

ULTIMATE

pack

9.9

Лицензия

ВАЖНО

ИГРА 18+

pack

7.3

RePack

MK11

7.7

RePack

jed

7.8

RePack

fifa19

8.5

RePack

RDR2

RePack

NEED FOR SPEED™ PAYBACK

1 сезон

9 сезон

Бесстыжие 9 сезон

Все сериалы

все сериалы на PB.wtf

RePack

FAR CRY 5

Anonymous, добрый день, мы катастрофически не успеваем собрать деньги на оплату серверов, помогите нам пожалуйста 5,10,15р., для нас важна любая помощь . В качестве благодарности мы отключим Вам всю рекламу на сайте (укажите свой ник в строку Ваше имя)!

×
  
Magnet ссылка

Ганмен / The Gunman (Пьер Морель ) [2015, боевик, триллер, драма, HDRip, Авторский (одноголосый) [Дмитрий Есарев] pb.wtf

Ганмен через торрент pb.wtf

Размер: 2.05 GB | Добавлен: 6 лет 7 мес. назад | Торрент скачан:375 раз
Смотреть онлайн Ганмен | Скачать    Ребята, помогите собрать деньги на оплату серверов!!!

19-06-2015 17:13 Ганмен Скачать торрент  

Ганмен / The Gunman

Год выпуска: 2015
Страна: США, Испания, Великобритания, Франция
Жанр: боевик, триллер, драма, криминал, детектив
Продолжительность: 01:55:39
Перевод: Авторский (одноголосый) [Дмитрий Есарев]
Режиссер: Пьер Морель
В ролях: Шон Пенн (Terrier), Хавьер Бардем (Felix), Рэй Уинстон (Stanley), Жазмин Тринка (Annie), Идрис Эльба (DuPont), Марк Райлэнс (Cox), Петер Францен (Reiniger), Билли Биллинхэм (Reed), Дэниэл Адегбойега (Bryson), Адэ Ойефесо (Eugene), Алехандро Таванте (Bullfighter), Florian Barisey (Village Boy)
Описание:
Джим Террье - ганмен, международный наемник высочайшего класса. Но когда в Компании начинают подчищать хвосты, Джим сам становится мишенью. Чтобы выжить, Джим угрожает обнародовать имеющийся у него компромат и обращается к бывшему напарнику Феликсу. Однако у Феликса есть свои резоны желать, чтобы Джим Террье исчез из его жизни. Это Энни - женщина, которую они оба любят. За Джимом начинается смертельная охота по всей Европе, и у него не остается другого выбора, кроме как дать бой - один против всех.
Рейтинг:

MPAA: R - Лицам до 17 лет обязательно присутствие взрослого
Качество: HDRip
Формат: AVI
Видео кодек: XviD
Аудио кодек: AC3
Видео: XviD, 720x304 (2.35:1), 1751 kbps, 23,976 fps, 0,334 bpp
Аудио №1: AC3 / 5.1 / 48 kHz / 384 kbps / 16 bit |С цензурой|
Аудио №2: AC3 / 5.1 / 48 kHz / 384 kbps / 16 bit |Без цензуры|

Код:

General
Complete name                            : C:\Users\Admin\Downloads\The.Gunman.2015.A.HDRip.2.05.Gb.avi
Format                                   : AVI
Format/Info                              : Audio Video Interleave
Format profile                           : OpenDML
File size                                : 2.05 GiB
Duration                                 : 1h 55mn
Overall bit rate                         : 2 538 Kbps
Writing application                      : VirtualDubMod 1.5.10.3 | www.virtualdub-fr.org || (build 2550/release)
Writing library                          : VirtualDubMod build 2550/release

Video
ID                                       : 0
Format                                   : MPEG-4 Visual
Format profile                           : Advanced Simple@L5
Format settings, BVOP                    : 1
Format settings, QPel                    : No
Format settings, GMC                     : No warppoints
Format settings, Matrix                  : Custom
Codec ID                                 : XVID
Codec ID/Hint                            : XviD
Duration                                 : 1h 55mn
Bit rate                                 : 1 751 Kbps
Width                                    : 720 pixels
Height                                   : 304 pixels
Display aspect ratio                     : 2.35:1
Frame rate                               : 23.976 fps
Color space                              : YUV
Chroma subsampling                       : 4:2:0
Bit depth                                : 8 bits
Scan type                                : Progressive
Compression mode                         : Lossy
Bits/(Pixel*Frame)                       : 0.334
Stream size                              : 1.42 GiB (69%)
Writing library                          : XviD 73

Audio #1
ID                                       : 1
Format                                   : AC-3
Format/Info                              : Audio Coding 3
Mode extension                           : CM (complete main)
Codec ID                                 : 2000
Duration                                 : 1h 55mn
Bit rate mode                            : Constant
Bit rate                                 : 384 Kbps
Channel(s)                               : 6 channels
Channel positions                        : Front: L C R, Side: L R, LFE
Sampling rate                            : 48.0 KHz
Bit depth                                : 16 bits
Compression mode                         : Lossy
Stream size                              : 318 MiB (15%)
Alignment                                : Split accross interleaves
Interleave, duration                     : 42 ms (1.00 video frame)
Interleave, preload duration             : 500 ms

Audio #2
ID                                       : 2
Format                                   : AC-3
Format/Info                              : Audio Coding 3
Mode extension                           : CM (complete main)
Codec ID                                 : 2000
Duration                                 : 1h 55mn
Bit rate mode                            : Constant
Bit rate                                 : 384 Kbps
Channel(s)                               : 6 channels
Channel positions                        : Front: L C R, Side: L R, LFE
Sampling rate                            : 48.0 KHz
Bit depth                                : 16 bits
Compression mode                         : Lossy
Stream size                              : 318 MiB (15%)
Alignment                                : Split accross interleaves
Interleave, duration                     : 42 ms (1.00 video frame)
Interleave, preload duration             : 500 ms

pb.wtf



Скачать Ганмен через торрент http://i70.fastpic.ru/big/2015/0619/92/9cdf384be7b6d4a73cf8e2bbf2e5f792.jpg Скачать, смотреть онлайн Ганмен бесплантно в хорошем качестве Описание: Джим Террье - ганмен, международный наемник высочайшего класса. Но когда в Компании начинают подчищать хвосты, Джим сам ... 9.9 10 18
Торрент: Зарегистрирован [2015-06-19 17:13] · скачан: 375 раз
Статус: √ проверено
Размер: 2.05 GB
Как cкачать? Как скачать Ганмен через торрент | UTorrent

% Раздел Тема Автор DL S | L
Фильмы [HD 720p, 1080p] (Хороший звук DUB, MVO) [ 5.84 GB ] Ганмен / The Gunman [2015 BDRip 720p] DUB AVO potroks Скачать
1 | 0
Фильмы 2015 [DVDrip, WEB-DLRip, HDrip] [ 1.46 GB ] Ганмен / The Gunman [2015 BDRip] Dub Twi7ter Скачать
1 | 0
Фильмы 2015 [DVDrip, WEB-DLRip, HDrip] [ 2.18 GB ] Ганмен / The Gunman [2015 BDRip-AVC] Dub potroks Скачать
1 | 0
Фильмы [HD 720p, 1080p] (Хороший звук DUB, MVO) [ 11.19 GB ] Ганмен / The Gunman [2015 BDRip 1080p - / ] Ворон Скачать
1 | 0
Фильмы 2015 [DVDrip, WEB-DLRip, HDrip] [ 2.05 GB ] Ганмен / The Gunman [2015 HDRip ] 10oN Скачать
1 | 0
Фильмы 2015 [DVDrip, WEB-DLRip, HDrip] [ 1.46 GB ] Ганмен / The Gunman [2015 BDRip-AVC] Dub potroks Скачать
1 | 0
Фильмы (Blu-ray, BD-Remux, HDDVD) [ 40.46 GB ] Ганмен / The Gunman [2015 BD Remux - / ] Ворон Скачать
1 | 0

28-11-2019 20:33  

Отключить всю рекламу на сайте

25-06-2015 10:04 Ганмен Скачать торрент  

вот! ВОТ ЭТО |С цензурой|/|Без цензуры| очень правильно!!вот все раздачи любительских/авторских так бы обозначали, а еще лучше с двумя дорогами выкладывали - вот это было бы ПРОСТО ЗАМЕЧАТЕЛЬНО! Дмитрий Есарев - очень мудрый товарищ, если так делать начал. Надеюсь, это будет началом славной традиции. Спасибо за раздачу, фильм обещает быть весьма неплохим.pb.wtf



    Дорогой пользователь! Огромная просьба, поблагодарите релизера, оцените раздачу и оставьте свои комментарий, если Вы скачали Ганмен через торрент бесплатно!
    Комментировать посты могут только пользователи прошедшие не сложную регистрацию
    Показать сообщения:    

    Ганмен через торрент
    Скачать бесплатно Ганмен
    Ганмен скачать торрент
    Ганмен смотреть онлайн
    Cкачать фильм Ганмен бесплатно
    Ганмен скачать торрент в хорошем качестве
    Ганмен смотреть онлайн бесплатно в хорошем качестве


    Вы не можете начинать темы
    Вы не можете отвечать на сообщения
    Вы не можете редактировать свои сообщения
    Вы не можете удалять свои сообщения
    Вы не можете голосовать в опросах
    Вы не можете прикреплять файлы к сообщениям
    Вы можете скачивать файлы