Ссылка на приватное зеркало всего за 1$. Внимание количество ограничено!!!

iTunes

iTunes

iTunes

1

iTunes

iTunes

iTunes

iTunes

iTunes

30
pack

Новость дня

ВАЖНО

!!Акция!!

Alien_RageХит недели

RePack

Resident Evil 21

ИГРА 18+

pack

RePack

jed

!!Акция!!

Alien_Rage

RePack

fifa19

RePack

Assassins Creed: Odyssey

RePack

NEED FOR SPEED™ PAYBACK

4 сезон

9 сезон

Бесстыжие 9 сезон

Все сериалы

все сериалы на PB.wtf

RePack

FAR CRY 5
  

Дабл трабл (Эдуард Оганесян ) [2015, комедия, WEBRip] pb.wtf

Дабл трабл через торрент pb.wtf

Размер: 1.37 GB | Добавлен: 4 года 11 мес. назад | Торрент скачан:1771 раз
Скачать  

19-06-2015 09:49 Дабл трабл Скачать торрент  

Дабл трабл

Год выпуска: 2015
Страна: Россия
Жанр: комедия
Продолжительность: 01:20:21
Перевод: Не требуется
Режиссер: Эдуард Оганесян
В ролях: Даниил Белых (Роман), Екатерина Варнава (Саша), Лера Куликова (Алена), Даниил Кузнец, Слава, Сергей Мезенцев, Владимир Тишко, Юлия Морозова, Лена Горностаева, Саймон
Описание:
Роман ведет холостяцкий образ жизни и свое шоу на радио. Как заправский психолог он раздает советы слушателям, приправляя их колкими шутками. Пока одна из них не оборачивается против него самого. На вопрос 20-летней Алены, ехать ли ей к отцу, Роман отвечает «Конечно! Я был бы рад». Он не знает, что в эфире - плод его случайной связи, а он сам в одночасье стал не только отцом, но и дедушкой Алениного сына. Новоиспеченные родственники погружают в ад беззаботного Романа и его девушку Сашу, светскую львицу и владелицу радиостанции. Не меньшее разочарование ждет и Алену. Только чудо сможет сделать их четверых одной семьей...
Рейтинг:

Качество: WEBRip
Формат: AVI
Видео кодек: XviD
Аудио кодек: AC3
Видео: XviD, 720x304 (2.35:1), 2041 kbps, 25 fps, 0,373 bpp
Аудио: AC3 / 2.0 / 48 kHz / 384 kbps / 16 bit

Код:

General
Complete name                            : C:\Users\Admin\Downloads\Dvoyn0y.Udar.2015.O.WEBRip.1400Mb.avi
Format                                   : AVI
Format/Info                              : Audio Video Interleave
File size                                : 1.37 GiB
Duration                                 : 1h 20mn
Overall bit rate                         : 2 436 Kbps
Writing application                      : VirtualDubMod 1.5.10.2 (build 2540/release)
Writing library                          : VirtualDubMod build 2540/release

Video
ID                                       : 0
Format                                   : MPEG-4 Visual
Format profile                           : Advanced Simple@L5
Format settings, BVOP                    : 2
Format settings, QPel                    : No
Format settings, GMC                     : No warppoints
Format settings, Matrix                  : Default (MPEG)
Codec ID                                 : XVID
Codec ID/Hint                            : XviD
Duration                                 : 1h 20mn
Bit rate                                 : 2 042 Kbps
Width                                    : 720 pixels
Height                                   : 304 pixels
Display aspect ratio                     : 2.35:1
Frame rate                               : 25.000 fps
Color space                              : YUV
Chroma subsampling                       : 4:2:0
Bit depth                                : 8 bits
Scan type                                : Progressive
Compression mode                         : Lossy
Bits/(Pixel*Frame)                       : 0.373
Stream size                              : 1.15 GiB (84%)
Writing library                          : XviD 1.2.1 (UTC 2008-12-04)

Audio
ID                                       : 1
Format                                   : AC-3
Format/Info                              : Audio Coding 3
Mode extension                           : CM (complete main)
Codec ID                                 : 2000
Duration                                 : 1h 20mn
Bit rate mode                            : Constant
Bit rate                                 : 384 Kbps
Channel(s)                               : 2 channels
Channel positions                        : Front: L R
Sampling rate                            : 48.0 KHz
Bit depth                                : 16 bits
Compression mode                         : Lossy
Stream size                              : 221 MiB (16%)
Alignment                                : Split accross interleaves
Interleave, duration                     : 40 ms (1.00 video frame)
Interleave, preload duration             : 500 ms

pb.wtf



Скачать Дабл трабл через торрент http://i69.fastpic.ru/big/2015/0619/12/d8ef058d774e4c5e9a4567f02e25b712.jpg Скачать фильм Дабл трабл через торрент бесплантно в хорошем качестве Описание: Роман ведет холостяцкий образ жизни и свое шоу на радио. Как заправский психолог он раздает советы слушателям, приправляя их ... 9.1 10 42
Торрент: Зарегистрирован [2015-06-19 18:26] · скачан: 1 771 раз
Статус: √ проверено
Размер: 1.37 GB
Как cкачать? Как скачать Дабл трабл через торрент | qTorrent

% Раздел Тема Автор DL S | L
Наши фильмы (HD, WEB-DL 720p, 1080p) [ 2.83 GB ] Дабл трабл [2015 WEB-DL 1080p] bober100 Скачать
1 | 0
Наши новые фильмы 2015 [ 745 MB ] Дабл трабл [2015 DVDRip ] [] Ворон Скачать
1 | 0
Наши новые фильмы 2015 [ 1.37 GB ] Дабл трабл [2015 DVDRip ] Ворон Скачать
1 | 0

28-11-2019 20:33  

Отключить всю рекламу на сайте

19-06-2015 10:18 Дабл трабл Скачать торрент  

должно быть великолепная, современная и оригинальная комедия!pb.wtf



19-06-2015 12:24 Дабл трабл Скачать торрент  

Чушь писал(а):

должно быть великолепная, современная и оригинальная комедия!

Фильм так себе !!! на один раз максимум !!!pb.wtf



19-06-2015 14:45 Дабл трабл Скачать торрент  

мне это девка всегда не нравилась, а с подрисованными, точно азербаджанpb.wtf



19-06-2015 14:47 Дабл трабл Скачать торрент  

сошлепали походу опять херь -хотя рейтинг уж больно высок для наших поделок-обычно два и три десятых-максимум три-надо глянуть-спасибо раздающему pb.wtf



19-06-2015 15:21 Дабл трабл Скачать торрент  

А где Дмитрий Нагиев? :сonn:pb.wtf



19-06-2015 20:06 Дабл трабл Скачать торрент  

Русские не знают чо уже и снимать. Один кал прет только!pb.wtf



20-06-2015 14:26 Дабл трабл Скачать торрент  

комедия с кавказским акцентом?pb.wtf



20-06-2015 19:18 Дабл трабл Скачать торрент  

Беллик писал(а):

Русские не знают чо уже и снимать. Один кал прет только!

Эдуарда Оганесяна с большим трудом можно назвать русским!!! sarcasticpb.wtf



27-06-2015 13:35 Дабл трабл Скачать торрент  

nikolaygurubrain писал(а):

мне это девка всегда не нравилась, а с подрисованными, точно азербаджан

Вам не нравятся евреи... Это нормально.pb.wtf



02-07-2015 09:34 Дабл трабл Скачать торрент  

принципиально не смотрю новые хачьи фильмы.pb.wtf



03-07-2015 06:52 Дабл трабл Скачать торрент  

Иногда удивляет мышление наших режиссёров. Фильм придуманный на скорую руку. Зачем? На что надежда? Потратил время зря на скачку и потратил время на просмотр. Ужоооосpb.wtf



    Дорогой пользователь! Огромная просьба, поблагодарите релизера, оцените раздачу и оставьте свои комментарий, если Вы скачали Дабл трабл через торрент бесплатно! Внесите свою лепту в развитие PiratBit!
    Комментировать посты могут только пользователи прошедшие не сложную регистрацию
    Показать сообщения:    

    Дабл трабл через торрент
    Скачать бесплатно Дабл трабл
    Дабл трабл скачать торрент
    Дабл трабл смотреть онлайн
    Cкачать фильм Дабл трабл бесплатно
    Дабл трабл скачать торрент в хорошем качестве
    Дабл трабл смотреть онлайн бесплатно в хорошем качестве


    Вы не можете начинать темы
    Вы не можете отвечать на сообщения
    Вы не можете редактировать свои сообщения
    Вы не можете удалять свои сообщения
    Вы не можете голосовать в опросах
    Вы не можете прикреплять файлы к сообщениям
    Вы можете скачивать файлы