Ссылка на приватное зеркало нашего сайта всего за 1$. Внимание количество ограничено!!!

2 сезон

iTunes

1 сезон

1

2 сезон

2 сезон

iTunes

1 сезон

RePack

30

Новинка

ВАЖНО

ИГРА 18+

pack

RePack

MK11
pack

Забери бонус

RePack

jed

!!Акция!!

Alien_Rage

RePack

fifa19

RePack

Assassins Creed: Odyssey

RePack

NEED FOR SPEED™ PAYBACK

4 сезон

9 сезон

Бесстыжие 9 сезон

Все сериалы

все сериалы на PB.wtf

RePack

FAR CRY 5
  

Клуб жён астронавтов / The Astronaut Wives Club / Сезон: 1 / Серии 1-10 из 10 (Дж. Миллер Тобин / J. Miller Tobin) [2015, США, драма, WEB-DLRip, MVO] [BaibaKo] pb.wtf

Клуб жён астронавтов через торрент pb.wtf

Размер: 5.36 GB | Добавлен: 5 лет назад | Торрент скачан:4 раза
Скачать  

20-06-2015 03:34 Клуб жён астронавтов Скачать торрент  

Клуб жён астронавтов / The Astronaut Wives Club


  • Год выпуска: 2015
  • Страна: США
  • Жанр: драма
  • Продолжительность: 00:43:08 (Серия)
  • Перевод: Профессиональный многоголосый закадровый [BaibaKo]

  • Режиссер: Дж. Миллер Тобин / J. Miller Tobin
  • В ролях:

    Ивонн Страховски (Rene Carpenter), Кеннет Митчелл (Deke Slayton), Одетт Эннэйбл (Trudy Cooper), Уилсон Бетел (Scott Carpenter), Эрин Каммингс (Marge Slayton), Десмонд Хэррингтон (Alan Shepard), Брэт Харрисон (Gordon Cooper), Джоэль Джонстоун (Gus Grissom), Аарон МакКаскер (Wally Schirra), Эжур Парсонс (Annie Glenn), Сэм Рид (John Glen), ДжоАнна Гарсиа Суишер (Betty Grissom)

  • Описание:
    В те далекие годы когда впервые человек смог покорить космос, это было грандиозное события для любого человека на земле. То что еще совсем недавно считалось фантастикой воплощается на яву, это вдохновляет многих и заставляет верить в то что нет ничего невозможного если верить и стремится всем сердцем.
    Это не просто сериал, это настоящая история произошедшая с реальными людьми, не сложно догадаться о ком пойдет речь. Их мужья стали самыми популярными личностями в США, образцами смелости и сильного духа. Мальчишки мечтали стать похожими на них, популярность парней намного превосходила звезд телевидения, потому что они являются настоящими героями творящими историю.
    Было два государства, каждое из них старалось быть лидером для всех, доказать преимущество капиталистического или коммунистического строя новейшими технология. Не секрет что стороны вкладывали огромные ресурсы, на роль космонавтов существовал жесткий отбор, проходили его только единицы. Ну и конечно любая девушка могла только мечтать что бы ее муж оказался тем самым кто покорял звезды. Прекрасные и красиво одетые по последней моде девушки станут главными героинями. Атмосфера шестидесятых годов передана с точностью до мелочей, мы погрузимся в исторические моменты тех лет.
  • Рейтинг:



  • Качество: WEB-DLRip
  • Формат: :AVI
  • Видео кодек: XviD
  • Аудио кодек: MP3
  • Видео: 720x400 (16:9), 1502 kbps, 23,976 fps, 0,218 bpp
  • Аудио №1: Русский 2.0 / 48 kHz / 192 kbps
  • Аудио №2: Английский 2.0 / 48 kHz / 192 kbps
  • Релиз от: GEKADOL

    Код:

    Внимание! Раздача ведётся путём добавления новых серий; при каждом добавлении создаётся новый торрент. Чтобы начать докачку новой серии, пользователям необходимо сделать следующее:
    (1) остановить скачивание,
    (2) удалить старый торрент у себя из клиента (старые серии удалять не надо),
    (3) скачать новый торрент и запустить его у себя в клиенте вместо старого, при этом указать клиенту путь в старую папку куда и должно происходить скачивание новых серий.
    Ваш клиент при этом должен произвести хеширование (проверку) старой папки (если не производит сам - помогите ему сделать это), и будет докачивать только те серии которых у вас ещё нет. Старые серии при этом не удаляются, а продолжают раздаваться!
    Eсли вы уже удалили старые серии, то предотвратить повторную закачку старых серий можно, отжав галочку в соответствующих местах при запуске нового торрента. По возможности, желательно не удалять старые серии как можно дольше чтобы релизёр не столько продолжал раздавать старые серии, а смог сконцентрироваться на новых.


    Код:

    General
    Complete name                            : F:\The Astronaut Wives Club (S01) BaiBaKo\The.Astronaut.Wives.Club.s01e01.WEB-DLRip.XviD.Rus.Eng.BaibaKo.tv.avi
    Format                                   : AVI
    Format/Info                              : Audio Video Interleave
    File size                                : 586 MiB
    Duration                                 : 43mn 8s
    Overall bit rate                         : 1 900 Kbps
    Writing application                      : VirtualDubMod 1.5.10.2 (build 2540/release)
    Writing library                          : VirtualDubMod build 2540/release

    Video
    ID                                       : 0
    Format                                   : MPEG-4 Visual
    Format profile                           : Advanced Simple@L5
    Format settings, BVOP                    : 2
    Format settings, QPel                    : No
    Format settings, GMC                     : No warppoints
    Format settings, Matrix                  : Default (H.263)
    Codec ID                                 : XVID
    Codec ID/Hint                            : XviD
    Duration                                 : 43mn 8s
    Bit rate                                 : 1 502 Kbps
    Width                                    : 720 pixels
    Height                                   : 400 pixels
    Display aspect ratio                     : 16:9
    Frame rate                               : 23.976 fps
    Color space                              : YUV
    Chroma subsampling                       : 4:2:0
    Bit depth                                : 8 bits
    Scan type                                : Progressive
    Compression mode                         : Lossy
    Bits/(Pixel*Frame)                       : 0.218
    Stream size                              : 464 MiB (79%)
    Writing library                          : XviD 1.2.1 (UTC 2008-12-04)

    Audio #1
    ID                                       : 1
    Format                                   : MPEG Audio
    Format version                           : Version 1
    Format profile                           : Layer 3
    Mode                                     : Joint stereo
    Mode extension                           : MS Stereo
    Codec ID                                 : 55
    Codec ID/Hint                            : MP3
    Duration                                 : 43mn 8s
    Bit rate mode                            : Constant
    Bit rate                                 : 192 Kbps
    Channel(s)                               : 2 channels
    Sampling rate                            : 48.0 KHz
    Compression mode                         : Lossy
    Stream size                              : 59.2 MiB (10%)
    Alignment                                : Aligned on interleaves
    Interleave, duration                     : 42 ms (1.00 video frame)
    Interleave, preload duration             : 504 ms
    Writing library                          : LAME3.98.4ЄЄЄЄЄЄЄЄЄЄ

    Audio #2
    ID                                       : 2
    Format                                   : MPEG Audio
    Format version                           : Version 1
    Format profile                           : Layer 3
    Mode                                     : Joint stereo
    Mode extension                           : MS Stereo
    Codec ID                                 : 55
    Codec ID/Hint                            : MP3
    Duration                                 : 43mn 8s
    Bit rate mode                            : Constant
    Bit rate                                 : 192 Kbps
    Channel(s)                               : 2 channels
    Sampling rate                            : 48.0 KHz
    Compression mode                         : Lossy
    Stream size                              : 59.2 MiB (10%)
    Alignment                                : Aligned on interleaves
    Interleave, duration                     : 42 ms (1.00 video frame)
    Interleave, preload duration             : 504 ms
    Writing library                          : LAMEЄЄЄ




    Скриншоты:

    Раздача ведётся путём добавления новых серий. Добавлена 10 серия (04.11.2015).Просьба перекачать торрент файл.

    pb.wtf



  • Скачать Клуб жён астронавтов через торрент http://i6.imageban.ru/out/2015/06/20/8d952693b6fab28c0c6c339efacba14e.jpg Скачать фильм Клуб жён астронавтов через торрент бесплантно в хорошем качестве Описание: В те далекие годы когда впервые человек смог покорить космос, это было грандиозное события для любого человека на земле. То что ... 8.9 10 7
    Info! Золотая раздача, скачанное не засчитывается.
    Торрент: Зарегистрирован [2015-11-04 01:44] · скачан: 4 раз
    Статус: √ проверено
    Размер: 5.36 GB
    Как cкачать? Как скачать Клуб жён астронавтов через торрент | qTorrent



    Последний раз редактировалось: GEKADOL (2015-11-04 01:43), всего редактировалось 5 раз(а)

    28-11-2019 20:33  

    Отключить всю рекламу на сайте

    06-07-2015 14:10 Клуб жён астронавтов Скачать торрент  

    Мда) Такое ощущение, что жены не в почете ) pb.wtf



      Дорогой пользователь! Огромная просьба, поблагодарите релизера, оцените раздачу и оставьте свои комментарий, если Вы скачали Клуб жён астронавтов через торрент бесплатно! Внесите свою лепту в развитие PiratBit!
      Комментировать посты могут только пользователи прошедшие не сложную регистрацию
      Показать сообщения:    

      Клуб жён астронавтов через торрент
      Скачать бесплатно Клуб жён астронавтов
      Клуб жён астронавтов скачать торрент
      Клуб жён астронавтов смотреть онлайн
      Cкачать фильм Клуб жён астронавтов бесплатно
      Клуб жён астронавтов скачать торрент в хорошем качестве
      Клуб жён астронавтов смотреть онлайн бесплатно в хорошем качестве


      Вы не можете начинать темы
      Вы не можете отвечать на сообщения
      Вы не можете редактировать свои сообщения
      Вы не можете удалять свои сообщения
      Вы не можете голосовать в опросах
      Вы не можете прикреплять файлы к сообщениям
      Вы можете скачивать файлы