Ссылка на приватное зеркало нашего сайта всего за 1$. Внимание количество ограничено!!!

2 сезон

iTunes

1 сезон

1

iTunes

iTunes

iTunes

1 сезон

RePack

30

ИГРА 18+

pack

ВАЖНО

!!Акция!!

Alien_RageХит недели

RePack

MK11
pack

Забери бонус

RePack

jed

!!Акция!!

Alien_Rage

RePack

fifa19

RePack

Assassins Creed: Odyssey

RePack

NEED FOR SPEED™ PAYBACK

4 сезон

9 сезон

Бесстыжие 9 сезон

Все сериалы

все сериалы на PB.wtf

RePack

FAR CRY 5
  

Французский транзит / La French (Седрик Жименес / Cédric Jimenez) [2014, боевик, триллер, криминал, BDRip 720p] (DUB , MVO) - IPTV pb.wtf

Французский транзит через торрент pb.wtf

Размер: 9.24 GB | Добавлен: 5 лет 4 мес. назад | Торрент скачан:771 раз
Скачать  

20-06-2015 05:52 Французский транзит Скачать торрент  


Французский транзит
La French

«Marseille 1975. To stop a dangerous drug lord, you need a dangerous cop»


Год выпуска: 2014
Страны: Франция , Бельгия
Жанры: боевик, триллер, криминал
Продолжительность: 02:15:18
Перевод: Профессиональный (дублированный) - IPTV, Профессиональный (многоголосый закадровый) - IPTV

Режиссер: Седрик Жименес / Cédric Jimenez
Сценарий: Одри Диван, Седрик Жименес / Audrey Diwan, Cédric Jimenez
В ролях:
Жан Дюжарден / Jean Dujardin (Pierre Michel), Жиль Леллуш / Gilles Lellouche (Gaëtan «Tany» Zampa), Селин Саллетт / Céline Sallette (Jacqueline Michel), Мелани Дотей / Mélanie Doutey (Christiane Zampa), Бенуа Мажимель / Benoît Magimel (Le Fou)


Французский полицейский судья на протяжении многих лет пытается разобраться с одним из самых крупных наркосиндикатов.
Бюджет: $26 000 000
Премьера (мир): 10 сентября 2014
Премьера (РФ): 28 мая 2015

Сэмпл

Качество: BDRip 720р
Формат: MKV
Видео кодек: AVC
Аудио кодек: AC3
Видео: 1280x534 (2.40:1), 24.000 fps, AVC, 8 500 Kbps
Аудио #1: AC3, 448 Kbps, 48.0 KHz, 6 ch - RUS Dub - IPTV
Аудио #2: AC3, 192 Kbps, 48.0 KHz, 2 ch - UKR MVO - IPTV
Аудио #3: AC3, 640 Kbps, 48.0 KHz, 6 ch - French
General
Unique ID : 244379888575291888223595071510196774747 (0xB7D9DAC1E8B697FF93E5ADC4E357E75B)
Complete name : [2014] Французский транзит [BDRip] [720p].mkv
Format : Matroska
Format version : Version 4 / Version 2
File size : 9.24 GiB
Duration : 2h 15mn
Overall bit rate : 9 777 Kbps
Movie name : Французский транзит / La French (2014) BDRip [720p]
Encoded date : UTC 2015-06-20 00:28:52
Writing application : mkvmerge v7.8.0 ('River Man') 32bit built on Mar 27 2015 16:18:02
Writing library : libebml v1.3.1 + libmatroska v1.4.2

Video
ID : 1
Format : AVC
Format/Info : Advanced Video Codec
Format profile : High@L4.1
Format settings, CABAC : Yes
Format settings, ReFrames : 12 frames
Codec ID : V_MPEG4/ISO/AVC
Duration : 2h 15mn
Bit rate : 8 500 Kbps
Width : 1 280 pixels
Height : 534 pixels
Display aspect ratio : 2.40:1
Frame rate mode : Constant
Frame rate : 24.000 fps
Color space : YUV
Chroma subsampling : 4:2:0
Bit depth : 8 bits
Scan type : Progressive
Bits/(Pixel*Frame) : 0.518
Stream size : 7.85 GiB (85%)
Title : [2014] Французский транзит / La French [BDRip] [720p]
Writing library : x264 core 142 r2479 dd79a61
Encoding settings : cabac=1 / ref=12 / deblock=1:-3:-3 / analyse=0x3:0x133 / me=umh / subme=11 / psy=1 / psy_rd=1.10:0.10 / mixed_ref=1 / me_range=32 / chroma_me=1 / trellis=2 / 8x8dct=1 / cqm=0 / deadzone=21,11 / fast_pskip=0 / chroma_qp_offset=-3 / threads=12 / lookahead_threads=2 / sliced_threads=0 / nr=0 / decimate=0 / interlaced=0 / bluray_compat=0 / constrained_intra=0 / bframes=8 / b_pyramid=2 / b_adapt=2 / b_bias=0 / direct=3 / weightb=1 / open_gop=0 / weightp=2 / keyint=250 / keyint_min=24 / scenecut=40 / intra_refresh=0 / rc_lookahead=80 / rc=2pass / mbtree=1 / bitrate=8500 / ratetol=1.0 / qcomp=0.75 / qpmin=0 / qpmax=69 / qpstep=4 / cplxblur=20.0 / qblur=0.5 / ip_ratio=1.40 / aq=1:0.70
Language : French
Default : Yes
Forced : No

Audio #1
ID : 2
Format : AC-3
Format/Info : Audio Coding 3
Mode extension : CM (complete main)
Format settings, Endianness : Big
Codec ID : A_AC3
Duration : 2h 15mn
Bit rate mode : Constant
Bit rate : 448 Kbps
Channel(s) : 6 channels
Channel positions : Front: L C R, Side: L R, LFE
Sampling rate : 48.0 KHz
Bit depth : 16 bits
Compression mode : Lossy
Stream size : 434 MiB (5%)
Title : Дублированный - IPTV
Language : Russian
Default : Yes
Forced : No

Audio #2
ID : 3
Format : AC-3
Format/Info : Audio Coding 3
Format profile : Dolby Digital
Mode extension : CM (complete main)
Format settings, Endianness : Big
Codec ID : A_AC3
Duration : 2h 15mn
Bit rate mode : Constant
Bit rate : 192 Kbps
Channel(s) : 2 channels
Channel positions : Front: L R
Sampling rate : 48.0 KHz
Bit depth : 16 bits
Compression mode : Lossy
Stream size : 186 MiB (2%)
Title : Многоголосый закадровый - IPTV - Украинский
Language : Ukrainian
Default : No
Forced : No

Audio #3
ID : 4
Format : AC-3
Format/Info : Audio Coding 3
Mode extension : CM (complete main)
Format settings, Endianness : Big
Codec ID : A_AC3
Duration : 2h 15mn
Bit rate mode : Constant
Bit rate : 640 Kbps
Channel(s) : 6 channels
Channel positions : Front: L C R, Side: L R, LFE
Sampling rate : 48.0 KHz
Bit depth : 16 bits
Compression mode : Lossy
Stream size : 619 MiB (7%)
Title : Оригинальный
Language : French
Default : No
Forced : No

Menu
00:00:00.000 : en:00:00:00.000
00:11:01.458 : en:00:11:01.458
00:21:07.167 : en:00:21:07.167
00:32:10.417 : en:00:32:10.417
00:43:32.417 : en:00:43:32.417
00:56:18.875 : en:00:56:18.875
01:06:47.042 : en:01:06:47.042
01:15:40.000 : en:01:15:40.000
01:28:48.708 : en:01:28:48.708
01:40:26.500 : en:01:40:26.500
01:55:01.167 : en:01:55:01.167
02:03:22.625 : en:02:03:22.625
pb.wtf



Скачать Французский транзит через торрент http://i71.fastpic.ru/big/2015/0620/9f/695ee2a341bd3b3664ff6233a008ba9f.jpg Скачать фильм Французский транзит через торрент бесплантно в хорошем качестве В ролях: Жан Дюжарден / Jean Dujardin (Pierre Michel), Жиль Леллуш / Gilles Lellouche (Gaëtan «Tany» Zampa), Селин Саллетт / Céline ... 9.2 10 26
Info! Золотая раздача, скачанное не засчитывается.
Торрент: Зарегистрирован [2015-06-20 05:53] · скачан: 771 раз
Статус: √ проверено
Размер: 9.24 GB
Как cкачать? Как скачать Французский транзит через торрент | qTorrent

% Раздел Тема Автор DL S | L
Фильмы 2014 [DVDrip, WEB-DLRip, HDrip] [ 2.2 GB ] Французский транзит / La French [2014 HDRip - IPTV] coc900 Скачать
1 | 0

28-11-2019 20:33  

Отключить всю рекламу на сайте

21-06-2015 15:04 Французский транзит Скачать торрент  

Фильм хорош
концовка жалко конечно
pb.wtf



25-06-2015 15:51 Французский транзит Скачать торрент  

спасибо глянемpb.wtf



26-06-2015 11:39 Французский транзит Скачать торрент  

сокол79 писал(а):

Фильм хорош , концовка жалко конечно,

ну и зачем писать такой комментарий??? теперь с концовкой все понятноpb.wtf



10-07-2015 19:11 Французский транзит Скачать торрент  

супер фильм. Хорошая игра актеров.pb.wtf



07-08-2015 09:08 Французский транзит Скачать торрент  

сокол79 писал(а):

Фильм хорош , концовка жалко конечно,

зачем такие вещи пишешь. м----кpb.wtf



26-10-2015 15:08 Французский транзит Скачать торрент  

Очень классный фильм! Рекомендую к просмотру!pb.wtf



    Дорогой пользователь! Огромная просьба, поблагодарите релизера, оцените раздачу и оставьте свои комментарий, если Вы скачали Французский транзит через торрент бесплатно! Внесите свою лепту в развитие PiratBit!
    Комментировать посты могут только пользователи прошедшие не сложную регистрацию
    Показать сообщения:    

    Французский транзит через торрент
    Скачать бесплатно Французский транзит
    Французский транзит скачать торрент
    Французский транзит смотреть онлайн
    Cкачать фильм Французский транзит бесплатно
    Французский транзит скачать торрент в хорошем качестве
    Французский транзит смотреть онлайн бесплатно в хорошем качестве


    Вы не можете начинать темы
    Вы не можете отвечать на сообщения
    Вы не можете редактировать свои сообщения
    Вы не можете удалять свои сообщения
    Вы не можете голосовать в опросах
    Вы не можете прикреплять файлы к сообщениям
    Вы можете скачивать файлы