Ссылка на приватное зеркало всего за 1$. Внимание количество ограничено!!!

iTunes

iTunes

iTunes

1

iTunes

iTunes

iTunes

iTunes

iTunes

30
pack

Новость дня

ВАЖНО

!!Акция!!

Alien_RageХит недели

RePack

Resident Evil 21

ИГРА 18+

pack

RePack

jed

!!Акция!!

Alien_Rage

RePack

fifa19

RePack

Assassins Creed: Odyssey

RePack

NEED FOR SPEED™ PAYBACK

4 сезон

9 сезон

Бесстыжие 9 сезон

Все сериалы

все сериалы на PB.wtf

RePack

FAR CRY 5
  

Отзвук (Алишер Хамдамов) [2015, Россия, драма, HDRip) pb.wtf

Отзвук через торрент pb.wtf

Размер: 1.37 GB | Добавлен: 4 года 11 мес. назад | Торрент скачан:378 раз
Скачать  

21-06-2015 02:27 Отзвук Скачать торрент  

Отзвук


  • Год выпуска: 2015
  • Страна: Россия
  • Жанр: драма
  • Продолжительность: 01:28:20
  • Перевод: Не требуется

  • Режиссер: Алишер Хамдамов
  • В ролях:

    Светлана Драченина (Нина), Иван Моховиков (Витя), Ольга Лысак (Рита), Мария Палей (Лена), Игорь Карташев (Пётр), Андрей Якимов (Ник), Леся Куликова (Леся), Егор Потапов (Сережа), Василиса Усикова (Нина в детстве), Данил Чопоров (Витя в детстве), Сергей Кудрявцев, Никита Полицеймако

  • Описание:
    После долгого отсутствия в деревне приезжает из города, чтобы навестить 31-летнюю Нину, её старшая сестра, 40-летняя Рита, а вместе с ней - 19-летняя дочь Лена. Визит этих городских жителей, у которых остались во вроде бы благополучном существовании в мегаполисе собственные душевные неурядицы и личные беды, вносит неожиданное смятение в налаженную и внешне спокойную жизнь Нины и её мужа Вити. Медея из российской провинции? Трагедия утраченной любви и неотвратимой мести за поруганную жизнь?
    Но эта история - не только об отчаянии человеческой души, которая больше не в силах терпеть боль и предательство. Не менее важна тревожная, складывающаяся где-то поблизости ситуация уже за пределами отдельной, частной жизни. Макромир оказывает воздействие на микромир, порой приводя к губительным последствиям.
  • Рейтинг:



  • Качество: HDRip
  • Формат: :AVI
  • Видео кодек: XviD
  • Аудио кодек: AC3
  • Видео: 720x400 (16:9), 1953 kbps, 25 fps, 0,271 bpp
  • Аудио: 2.0 / 48 kHz / 256 kbps / 16 bit
  • Релиз от: GEKADOL

    Код:

    General
    Complete name                            : F:\0t3BuK.2015.O.HDRip.avi
    Format                                   : AVI
    Format/Info                              : Audio Video Interleave
    File size                                : 1.37 GiB
    Duration                                 : 1h 28mn
    Overall bit rate                         : 2 219 Kbps
    Movie name                               : Otzvuk.2015.O.HDRip
    Writing application                      : VirtualDubMod 1.5.10.3 | www.virtualdub-fr.org || (build 2550/release)

    Video
    ID                                       : 0
    Format                                   : MPEG-4 Visual
    Format profile                           : Advanced Simple@L5
    Format settings, BVOP                    : 2
    Format settings, QPel                    : No
    Format settings, GMC                     : No warppoints
    Format settings, Matrix                  : Default (MPEG)
    Muxing mode                              : Packed bitstream
    Codec ID                                 : XVID
    Codec ID/Hint                            : XviD
    Duration                                 : 1h 28mn
    Bit rate                                 : 1 953 Kbps
    Width                                    : 720 pixels
    Height                                   : 400 pixels
    Display aspect ratio                     : 16:9
    Frame rate                               : 25.000 fps
    Color space                              : YUV
    Chroma subsampling                       : 4:2:0
    Bit depth                                : 8 bits
    Scan type                                : Progressive
    Compression mode                         : Lossy
    Bits/(Pixel*Frame)                       : 0.271
    Stream size                              : 1.21 GiB (88%)
    Writing library                          : XviD 1.2.1 (UTC 2008-12-04)

    Audio
    ID                                       : 1
    Format                                   : AC-3
    Format/Info                              : Audio Coding 3
    Mode extension                           : CM (complete main)
    Codec ID                                 : 2000
    Duration                                 : 1h 28mn
    Bit rate mode                            : Constant
    Bit rate                                 : 256 Kbps
    Channel(s)                               : 2 channels
    Channel positions                        : Front: L R
    Sampling rate                            : 48.0 KHz
    Bit depth                                : 16 bits
    Compression mode                         : Lossy
    Stream size                              : 162 MiB (12%)
    Alignment                                : Split accross interleaves
    Interleave, duration                     : 40 ms (1.00 video frame)
    Interleave, preload duration             : 500 ms


    Скриншоты:



    pb.wtf



  • Скачать Отзвук через торрент http://i2.imageban.ru/out/2015/06/21/3862f93d5475e68b8dbedc34bca847d5.jpg Скачать фильм Отзвук через торрент бесплантно в хорошем качестве Описание: После долгого отсутствия в деревне приезжает из города, чтобы навестить 31-летнюю Нину, её старшая сестра, 40-летняя Рита, а ... 8.8 10 18
    Info! Серебряная раздача, засчитывается только 50% скачанного.
    Торрент: Зарегистрирован [2015-06-21 02:27] · скачан: 378 раз
    Статус: √ проверено
    Размер: 1.37 GB
    Как cкачать? Как скачать Отзвук через торрент | qTorrent

    % Раздел Тема Автор DL S | L
    Наши фильмы (HD, WEB-DL 720p, 1080p) [ 8.79 GB ] Отзвук [2015 Россия BDRip 1080p] GEKADOL Скачать
    1 | 0
    Наши фильмы (HD, WEB-DL 720p, 1080p) [ 4.79 GB ] Отзвук [2015 Россия BDRip 720p) GEKADOL Скачать
    1 | 0
    Фильмы до 2000 г. [ 1.56 GB ] Отзвуки эха / Stir of Echoes [1999 BDRip] feldeger Скачать
    1 | 0
    Фильмы 2006-2008 [ 1.37 GB ] Отзвуки эха / Haunted Echoes [2008 DVDRip] SD Скачать
    1 | 0

    28-11-2019 20:33  

    Отключить всю рекламу на сайте

      Дорогой пользователь! Огромная просьба, поблагодарите релизера, оцените раздачу и оставьте свои комментарий, если Вы скачали Отзвук через торрент бесплатно! Внесите свою лепту в развитие PiratBit!
      Комментировать посты могут только пользователи прошедшие не сложную регистрацию
      Показать сообщения:    

      Отзвук через торрент
      Скачать бесплатно Отзвук
      Отзвук скачать торрент
      Отзвук смотреть онлайн
      Cкачать фильм Отзвук бесплатно
      Отзвук скачать торрент в хорошем качестве
      Отзвук смотреть онлайн бесплатно в хорошем качестве


      Вы не можете начинать темы
      Вы не можете отвечать на сообщения
      Вы не можете редактировать свои сообщения
      Вы не можете удалять свои сообщения
      Вы не можете голосовать в опросах
      Вы не можете прикреплять файлы к сообщениям
      Вы можете скачивать файлы