Ссылка на приватное зеркало всего за 1$. Внимание количество ограничено!!!

OK

1+1

iTunes

мы

OK

1

WEB-DLRip

Джокер

Пифагор

Ведьмак / The Witcher сериал

iTunes

ПШазам

ОК

Оно 2

iTunes

30
pack

Вам бонус

ВАЖНО

!!Акция!!

Alien_RageХит недели

RePack

Resident Evil 21

ИГРА 18+

pack

RePack

jed

RePack

fifa19

RePack

Assassins Creed: Odyssey

RePack

NEED FOR SPEED™ PAYBACK

4 сезон

9 сезон

Бесстыжие 9 сезон

Все сериалы

все сериалы на PB.wtf

RePack

FAR CRY 5
  

Шафер напрокат (Джереми Гарелик / Jeremy Garelick) [2015, Комедия, мелодрама, BDRip-AVC от potroks] DUB Лицензия pb.wtf

Шафер напрокат через торрент pb.wtf

Размер: 1.46 GB | Добавлен: 4 года 6 мес. назад | Торрент скачан:474 раза
Скачать  

21-06-2015 13:10 Шафер напрокат Скачать торрент  

Шафер напрокат / The Wedding Ringer
Год выпуска: 2015
Страна: США / Screen Gems, Miramax Films...
Жанр: Комедия, мелодрама
Продолжительность: 01:41:26
Перевод: Дубляж [BD CEE]
Субтитры: Русские (полные + форс.)

Режиссер: Джереми Гарелик / Jeremy Garelick

В ролях: Кевин Харт, Джош Гэд, Кейли Куоко, Эффион Крокетт, Хорхе Гарсиа, Дэн Гилл, Кори Холкомб, Кен Ховард, Колин Кэйн, Клорис Личмен, Дженифер Льюис, Алан Ричсон, Мими Роджерс, Аарон Такахаси, Оливия Тирлби, Уитни Каммингс, Игнасио Серричио, Николь Вилан, Никки Уилан, Патрик Карлайл

Описание: Главный герой женится на девушке своей мечты. Он купил кольца и смокинг, оплатил шикарный ресторан, но для идеальной церемонии не хватает маленькой детали — друзей жениха. Эту «услугу» он находит в специальном агентстве, где напрокат получает целый комплект «друзей»… Пройдет ли теперь подготовка и сама свадьба идеально?



Качество: BDRip-AVC
Формат: MKV
Видео кодек: H.264
Аудио кодек: AC3
Видео: 1032x430 (2,40:1), 23.976 fps, 1678 kbps, 0.158 bit/pixel
Аудио: 48 kHz, AC3 Dolby Digital, 3/2 (L,C,R,l,r) + LFE ch, 384.00 kbps

Релиз группы:
Автор рипа: potroks

Общее
Уникальный идентификатор : 212693395327458975333162230721910867414 (0xA0034205F5F6CA1CA26F8AF8299B05D6)
Полное имя : Shafer.na.Prokat.2015.RUS.BDRip.x264.-HELLYWOOD.mkv
Формат : Matroska
Версия формата : Version 4 / Version 2
Размер файла : 1,46 Гбайт
Продолжительность : 1 ч. 41 м.
Общий поток : 2064 Кбит/сек
Название фильма : The Wedding Ringer (2015) - HELLYWOOD
Дата кодирования : UTC 2015-07-15 20:07:49
Программа кодирования : mkvmerge v5.9.0 ('On The Loose') built on Dec 15 2012 16:39:58
Библиотека кодирования : libebml v1.3.0 + libmatroska v1.4.0

Видео
Идентификатор : 1
Формат : AVC
Формат/Информация : Advanced Video Codec
Профиль формата : High@L4.1
Параметр CABAC формата : Да
Параметр ReFrames формата : 10 кадров
Идентификатор кодека : V_MPEG4/ISO/AVC
Продолжительность : 1 ч. 41 м.
Битрейт : 1678 Кбит/сек
Ширина : 1032 пикселя
Высота : 430 пикселей
Соотношение сторон : 2,40:1
Режим частоты кадров : Постоянный
Частота кадров : 23,976 кадра/сек
Цветовое пространство : YUV
Субдискретизация насыщенности : 4:2:0
Битовая глубина : 8 бит
Тип развёртки : Прогрессивная
Бит/(Пиксели*Кадры) : 0.158
Размер потока : 1,16 Гбайт (79%)
Заголовок : potroks
Библиотека кодирования : x264 core 146 r2538 121396c
Настройки программы : cabac=1 / ref=10 / deblock=1:-2:-2 / analyse=0x3:0x113 / me=umh / subme=11 / psy=1 / psy_rd=1.04:0.10 / mixed_ref=1 / me_range=48 / chroma_me=1 / trellis=2 / 8x8dct=1 / cqm=0 / deadzone=21,11 / fast_pskip=0 / chroma_qp_offset=-3 / threads=9 / lookahead_threads=2 / sliced_threads=0 / nr=0 / decimate=1 / interlaced=0 / bluray_compat=0 / constrained_intra=0 / bframes=11 / b_pyramid=2 / b_adapt=2 / b_bias=0 / direct=3 / weightb=1 / open_gop=0 / weightp=2 / keyint=250 / keyint_min=23 / scenecut=40 / intra_refresh=0 / rc_lookahead=60 / rc=2pass / mbtree=0 / bitrate=1678 / ratetol=1.0 / qcomp=0.70 / qpmin=0 / qpmax=69 / qpstep=4 / cplxblur=20.0 / qblur=0.5 / vbv_maxrate=14000 / vbv_bufsize=14000 / nal_hrd=none / filler=0 / ip_ratio=1.35 / pb_ratio=1.25 / aq=1:0.80
Язык : English
Default : Да
Forced : Нет

Аудио
Идентификатор : 2
Формат : AC-3
Формат/Информация : Audio Coding 3
Расширение режима : CM (complete main)
Параметр Endianness формата : Big
Идентификатор кодека : A_AC3
Продолжительность : 1 ч. 41 м.
Вид битрейта : Постоянный
Битрейт : 384 Кбит/сек
Каналы : 6 каналов
Расположение каналов : Front: L C R, Side: L R, LFE
Частота : 48,0 КГц
Метод сжатия : С потерями
Размер потока : 279 Мбайт (19%)
Заголовок : Dub | DD 5.1 @ 384 kbps - Blu-Ray CEE
Язык : Russian
Default : Да
Forced : Нет

Текст #1
Идентификатор : 3
Формат : UTF-8
Идентификатор кодека : S_TEXT/UTF8
Идентификатор кодека/Информация : UTF-8 Plain Text
Заголовок : Forced
Язык : Russian
Default : Да
Forced : Нет

Текст #2
Идентификатор : 4
Формат : UTF-8
Идентификатор кодека : S_TEXT/UTF8
Идентификатор кодека/Информация : UTF-8 Plain Text
Заголовок : iTunes
Язык : Russian
Default : Нет
Forced : Нет

Меню
00:00:00.000 : en:00:00:00.000
00:08:14.077 : en:00:08:14.077
00:13:08.538 : en:00:13:08.538
00:19:36.675 : en:00:19:36.675
00:23:17.479 : en:00:23:17.479
00:27:22.558 : en:00:27:22.558
00:33:22.417 : en:00:33:22.417
00:40:42.023 : en:00:40:42.023
00:47:49.950 : en:00:47:49.950
00:53:47.641 : en:00:53:47.641
01:01:40.906 : en:01:01:40.906
01:07:18.868 : en:01:07:18.868
01:12:35.268 : en:01:12:35.268
01:19:47.908 : en:01:19:47.908
01:27:12.978 : en:01:27:12.978
01:35:08.202 : en:01:35:08.202

pb.wtf



Скачать Шафер напрокат через торрент http://pic.kartinco.top/images/11/p8qcs.jpg Скачать фильм Шафер напрокат через торрент бесплантно в хорошем качестве Описание: Главный герой женится на девушке своей мечты. Он купил кольца и смокинг, оплатил шикарный ресторан, но для идеальной церемонии не ... 9.4 10 44
Info! Золотая раздача, скачанное не засчитывается.
Торрент: Зарегистрирован [2015-07-15 20:21] · скачан: 474 раз
Статус: √ проверено
Размер: 1.46 GB
Как cкачать? Как скачать Шафер напрокат через торрент | qTorrent

% Раздел Тема Автор DL S | L
Фильмы [HD 720p, 1080p] (Хороший звук DUB, MVO) [ 4.71 GB ] Шафер напрокат [2015 BDRip 720p] DUB potroks Скачать
1 | 0
Фильмы 2015 [DVDrip, WEB-DLRip, HDrip] [ 1.46 GB ] Шафер напрокат [2015 BDRip] DUB Twi7ter Скачать
1 | 0
Фильмы 2015 [DVDrip, WEB-DLRip, HDrip] [ 2.23 GB ] Шафер напрокат [2015 BDRip-AVC] DUB potroks Скачать
1 | 0


Последний раз редактировалось: potroks (2015-07-15 20:21), всего редактировалось 1 раз

28-11-2019 20:33  

Отключить всю рекламу на сайте

21-06-2015 17:23 Шафер напрокат Скачать торрент  

ну, разве что из-за Пэнни глянуть...pb.wtf



21-06-2015 17:28 Шафер напрокат Скачать торрент  

Просто отличный Фильм !!!pb.wtf



23-06-2015 14:03 Шафер напрокат Скачать торрент  

sergunka писал(а):

ну, разве что из-за Пэнни глянуть...

такой шляпы давненько не смотрел.осилил только пол фильмаpb.wtf



24-06-2015 07:19 Шафер напрокат Скачать торрент  

норм поржал!!pb.wtf



25-06-2015 13:11 Шафер напрокат Скачать торрент  

Офигенная комедия!Поржал от души pb.wtf



04-07-2015 16:05 Шафер напрокат Скачать торрент  

Спасибо, гляну вечером с подругой :curtsey: pb.wtf



    Дорогой пользователь! Огромная просьба, поблагодарите релизера, оцените раздачу и оставьте свои комментарий, если Вы скачали Шафер напрокат через торрент бесплатно! Внесите свою лепту в развитие PiratBit!
    Комментировать посты могут только пользователи прошедшие не сложную регистрацию
    Показать сообщения:    

    Шафер напрокат через торрент
    Скачать бесплатно Шафер напрокат
    Шафер напрокат скачать торрент
    Шафер напрокат смотреть онлайн
    Cкачать фильм Шафер напрокат бесплатно
    Шафер напрокат скачать торрент в хорошем качестве
    Шафер напрокат смотреть онлайн бесплатно в хорошем качестве


    Вы не можете начинать темы
    Вы не можете отвечать на сообщения
    Вы не можете редактировать свои сообщения
    Вы не можете удалять свои сообщения
    Вы не можете голосовать в опросах
    Вы не можете прикреплять файлы к сообщениям
    Вы можете скачивать файлы