Anonymous, добрый день, присоединяйтесь к нам в Telegram!, здесь всегда актуальный адрес сайта, оперативная поддержка и многое другое!

>

5.5

iTunes

7.4

iTunes

7.9

iTunes

1

7.7

1 сезон

6.8

iTunes

7.3

1 сезон

13

6.7

1 сезон

8.3

RePack

30

ULTIMATE

pack

9.9

Лицензия

ВАЖНО

ИГРА 18+

pack

7.3

RePack

MK11

7.7

RePack

jed

7.8

RePack

fifa19

8.5

RePack

RDR2

RePack

NEED FOR SPEED™ PAYBACK

4 сезон

9 сезон

Бесстыжие 9 сезон

Все сериалы

все сериалы на PB.wtf

RePack

FAR CRY 5

Anonymous, добрый день, мы катастрофически не успеваем собрать деньги на оплату серверов, помогите нам пожалуйста 5,10,15р., для нас важна любая помощь . В качестве благодарности мы отключим Вам всю рекламу на сайте (укажите свой ник в строку Ваше имя)!

×
  
Magnet ссылка

Железный человек: Трилогия / Iron Man: Trilogy (Джон Фавро, Шейн Блэк) [2008, 2010, 2013 США, Китай, Фантастика, боевик, приключения, BDRip 720p,DUB] 60fps от R.G. HD-Films pb.wtf

Железный человек: Трилогия через торрент pb.wtf

Раздают: 2 [ 0 KB/s ]
Размер: 14.22 GB | Добавлен: 6 лет 4 мес. назад | Торрент скачан:832 раза
Смотреть онлайн Железный человек: Трилогия | Скачать    Ребята, помогите собрать деньги на оплату серверов!!!

22-06-2015 09:33 Железный человек: Трилогия Скачать торрент  

Железный человек: Трилогия / Iron Man: Trilogy
Железный человек / Iron Man
Год выпуска: 2008
Страна: США
Жанр: фантастика, боевик, приключения

Продолжительность: 02:05:54
Перевод: Дубляж
Субтитры: русские (Forced), русские (Full),

Режиссер: Джон Фавро
В ролях: Роберт Дауни мл. (Tony Stark / Iron Man), Джефф Бриджес (Obadiah Stane), Гвинет Пэлтроу (Pepper Potts), Терренс Ховард (Rhodey), Лесли Бибб (Christine Everhart), Шон Тоуб (Yinsen), Фаран Таир (Raza), Кларк Грегг (Agent Coulson), Джон Фавро (Hogan), Саид Бадрия (Abu Bakaar), Билл Смитрович (General Gabriel), Пол Беттани (Jarvis, озвучка)
Описание:
Миллиардер изобретатель Тони Старк попадает в плен к Афганским террористам, которые пытаются заставить его создать оружие массового поражения. В тайне от своих захватчиков Старк конструирует высокотехнологичную киберброню, которая помогает ему сбежать. Однако по возвращению в США он узнаёт, что в совете директоров его фирмы плетётся заговор, чреватый страшными последствиями. Используя своё последнее изобретение, Старк пытается решить проблемы своей компании радикально...
Рейтинг:

Качество: BDRip 720p / 60 FPS / 60fps
Формат: MKV
Видео кодек: AVC
Аудио кодек:AC3
Видео: AVC, 1280x536 (2.40:1), 4818 kbps, 60 fps, 0,117 bpp
Аудио: русский / AC3 / 5.1 / 48 kHz / 384 kbps / 16 bit ||
Навигация по главам: есть
Релиз:
x264 [info]: frame I:2140 Avg QP:13.90 size:106587
x264 [info]: frame P:119291 Avg QP:16.75 size: 24322
x264 [info]: frame B:331815 Avg QP:20.39 size: 4569
x264 [info]: consecutive B-frames: 2.8% 4.9% 15.4% 20.5% 56.4%


General
Unique ID : 217486534924784746759740206183196306229 (0xA39E620D06BEE4BD9D2F329A09B2AB35)
Complete name : D:\DVD\Iron Man Trilogy\Iron.Man.(2008).BDRip.720p.(60 Fps).mkv
Format : Matroska
Format version : Version 4 / Version 2
File size : 4.67 GiB
Duration : 2h 5mn
Overall bit rate : 5 308 Kbps
Movie name : Железный человек / Iron Man (2008) BDRip 720p от R.G. HD-Films | 60 fps
Encoded date : UTC 2015-06-22 06:48:24
Writing application : mkvmerge v6.2.0 ('Promised Land') built on Apr 28 2013 12:22:01
Writing library : libebml v1.3.0 + libmatroska v1.4.0

Video
ID : 1
Format : AVC
Format/Info : Advanced Video Codec
Format profile : High@L4.1
Format settings, CABAC : Yes
Format settings, ReFrames : 4 frames
Codec ID : V_MPEG4/ISO/AVC
Duration : 2h 5mn
Bit rate : 4 818 Kbps
Width : 1 280 pixels
Height : 536 pixels
Display aspect ratio : 2.40:1
Frame rate : 60.000 fps
Color space : YUV
Chroma subsampling : 4:2:0
Bit depth : 8 bits
Scan type : Progressive
Bits/(Pixel*Frame) : 0.117
Stream size : 4.24 GiB (91%)
Title : Iron Man (2008) BDRip 720p (60 Fps).mkv
Writing library : x264 core 130 r2273 b3065e6
Encoding settings : cabac=1 / ref=4 / deblock=1:0:0 / analyse=0x3:0x113 / me=umh / subme=9 / psy=1 / psy_rd=1.00:0.00 / mixed_ref=1 / me_range=24 / chroma_me=1 / trellis=2 / 8x8dct=1 / cqm=0 / deadzone=21,11 / fast_pskip=1 / chroma_qp_offset=-2 / threads=10 / lookahead_threads=1 / sliced_threads=0 / nr=0 / decimate=1 / interlaced=0 / bluray_compat=0 / constrained_intra=0 / bframes=4 / b_pyramid=2 / b_adapt=2 / b_bias=0 / direct=1 / weightb=1 / open_gop=0 / weightp=2 / keyint=600 / keyint_min=59 / scenecut=40 / intra_refresh=0 / rc_lookahead=40 / rc=crf / mbtree=1 / crf=15.0 / qcomp=0.60 / qpmin=0 / qpmax=69 / qpstep=4 / ip_ratio=1.40 / aq=1:1.00
Language : English
Default : Yes
Forced : No

Audio
ID : 2
Format : AC-3
Format/Info : Audio Coding 3
Mode extension : CM (complete main)
Codec ID : A_AC3
Duration : 2h 5mn
Bit rate mode : Constant
Bit rate : 384 Kbps
Channel(s) : 6 channels
Channel positions : Front: L C R, Side: L R, LFE
Sampling rate : 48.0 KHz
Bit depth : 16 bits
Compression mode : Lossy
Stream size : 346 MiB (7%)
Title : AC3 5.1 @ 384 kbps - Дубляж, Пифагор
Language : Russian
Default : Yes
Forced : No

Text #1
ID : 3
Format : UTF-8
Codec ID : S_TEXT/UTF8
Codec ID/Info : UTF-8 Plain Text
Title : Forced
Language : Russian
Default : No
Forced : No

Text #2
ID : 4
Format : UTF-8
Codec ID : S_TEXT/UTF8
Codec ID/Info : UTF-8 Plain Text
Title : Full
Language : Russian
Default : No
Forced : No

Menu
00:00:00.000 : :00:00:00.000
00:09:06.171 : :00:09:06.171
00:18:00.579 : :00:18:00.579
00:26:49.942 : :00:26:49.942
00:35:01.850 : :00:35:01.850
00:43:15.259 : :00:43:15.259
00:52:38.489 : :00:52:38.489
00:59:24.644 : :00:59:24.644
01:07:32.423 : :01:07:32.423
01:11:44.300 : :01:11:44.300
01:18:31.206 : :01:18:31.206
01:24:40.575 : :01:24:40.575
01:35:00.111 : :01:35:00.111
01:44:29.346 : :01:44:29.346
01:53:31.471 : :01:53:31.471
скриншот   скриншот   скриншот   скриншот   скриншот   скриншот  
Железный человек 2 / Iron Man 2
Год выпуска: 2010
Страна: США
Жанр: фантастика, боевик, приключения

Продолжительность: 02:04:31
Перевод: Дубляж
Субтитры: русские (Forced), русские (Full)

Режиссер: Джон Фавро
В ролях: Роберт Дауни мл. (Tony Stark), Микки Рурк (Ivan Vanko), Гвинет Пэлтроу (Pepper Potts), Дон Чидл (Lt. Col. James «Rhodey» Rhodes), Сэм Рокуэлл (Justin Hammer), Скарлетт Йоханссон (Natalie Rushman / Natasha Romanoff), Кларк Грегг (Agent Coulson), Сэмюэл Л. Джексон (Nick Fury), Джон Слэттери (Howard Stark), Гарри Шендлинг (Senator Stern), Пол Беттани (Jarvis, озвучка), Кейт Мара (U.S. Marshal)
Описание:
Прошло полгода с тех пор, как мир узнал, что миллиардер-изобретатель Тони Старк является обладателем уникальной кибер-брони Железного человека. Общественность требует, чтобы Старк передал технологию брони правительству США, но Тони не хочет разглашать её секреты, потому что боится, что она попадёт не в те руки.
Между тем Иван Ванко - сын русского учёного, когда-то работавшего на фирму Старка, но потом уволенного и лишенного всего, намерен отомстить Тони за беды своей семьи. Для чего сооружает своё высокотехнологичное оружие.

Рейтинг:

Качество: BDRip 720p / 60 FPS / 60fps
Формат: MKV
Видео кодек: AVC
Аудио кодек:AC3
Видео: AVC, 1280x544 (2.35:1), 4958 kbps, 60 fps, 0,119 bpp
Аудио: русский / AC3 / 5.1 / 48 kHz / 384 kbps / 16 bit ||
Навигация по главам: есть
Релиз:
x264 [info]: frame I:2455 Avg QP:14.21 size:102476
x264 [info]: frame P:121978 Avg QP:16.96 size: 24062
x264 [info]: frame B:323863 Avg QP:20.49 size: 4762
x264 [info]: consecutive B-frames: 3.4% 6.8% 14.7% 20.7% 54.4%


General
Unique ID : 174436992179353865687181199769149340923 (0x833B57B8DFC9A0EAA1C389CF8A837CFB)
Complete name : D:\DVD\Iron Man Trilogy\Iron.Man.2.(2010).BDRip.720p.(60 Fps).mkv
Format : Matroska
Format version : Version 4 / Version 2
File size : 4.74 GiB
Duration : 2h 4mn
Overall bit rate : 5 451 Kbps
Movie name : Железный человек 2 / Iron Man 2 (2010) BDRip 720p от R.G. HD-Films | 60 fps
Encoded date : UTC 2015-06-22 06:58:14
Writing application : mkvmerge v6.2.0 ('Promised Land') built on Apr 28 2013 12:22:01
Writing library : libebml v1.3.0 + libmatroska v1.4.0

Video
ID : 1
Format : AVC
Format/Info : Advanced Video Codec
Format profile : High@L4.1
Format settings, CABAC : Yes
Format settings, ReFrames : 4 frames
Codec ID : V_MPEG4/ISO/AVC
Duration : 2h 4mn
Bit rate : 4 959 Kbps
Width : 1 280 pixels
Height : 544 pixels
Display aspect ratio : 2.35:1
Frame rate : 60.000 fps
Color space : YUV
Chroma subsampling : 4:2:0
Bit depth : 8 bits
Scan type : Progressive
Bits/(Pixel*Frame) : 0.119
Stream size : 4.31 GiB (91%)
Title : Iron Man 2 (2010) BDRip 720p (60 Fps).mkv
Writing library : x264 core 130 r2273 b3065e6
Encoding settings : cabac=1 / ref=4 / deblock=1:0:0 / analyse=0x3:0x113 / me=umh / subme=9 / psy=1 / psy_rd=1.00:0.00 / mixed_ref=1 / me_range=24 / chroma_me=1 / trellis=2 / 8x8dct=1 / cqm=0 / deadzone=21,11 / fast_pskip=1 / chroma_qp_offset=-2 / threads=10 / lookahead_threads=1 / sliced_threads=0 / nr=0 / decimate=1 / interlaced=0 / bluray_compat=0 / constrained_intra=0 / bframes=4 / b_pyramid=2 / b_adapt=2 / b_bias=0 / direct=1 / weightb=1 / open_gop=0 / weightp=2 / keyint=600 / keyint_min=59 / scenecut=40 / intra_refresh=0 / rc_lookahead=40 / rc=crf / mbtree=1 / crf=15.0 / qcomp=0.60 / qpmin=0 / qpmax=69 / qpstep=4 / ip_ratio=1.40 / aq=1:1.00
Language : English
Default : Yes
Forced : No

Audio
ID : 2
Format : AC-3
Format/Info : Audio Coding 3
Mode extension : CM (complete main)
Codec ID : A_AC3
Duration : 2h 4mn
Bit rate mode : Constant
Bit rate : 384 Kbps
Channel(s) : 6 channels
Channel positions : Front: L C R, Side: L R, LFE
Sampling rate : 48.0 KHz
Bit depth : 16 bits
Compression mode : Lossy
Stream size : 342 MiB (7%)
Title : AC3 5.1 @ 384 kbps DUB
Language : Russian
Default : Yes
Forced : No

Text #1
ID : 3
Format : UTF-8
Codec ID : S_TEXT/UTF8
Codec ID/Info : UTF-8 Plain Text
Title : Forced
Language : Russian
Default : No
Forced : No

Text #2
ID : 4
Format : UTF-8
Codec ID : S_TEXT/UTF8
Codec ID/Info : UTF-8 Plain Text
Title : Full
Language : Russian
Default : No
Forced : No

Menu
00:00:00.000 : :00:00:00.000
00:05:04.304 : :00:05:04.304
00:11:07.584 : :00:11:07.584
00:17:59.954 : :00:17:59.954
00:25:53.010 : :00:25:53.010
00:30:26.783 : :00:30:26.783
00:37:33.001 : :00:37:33.001
00:43:59.637 : :00:43:59.637
00:51:39.346 : :00:51:39.346
01:00:10.523 : :01:00:10.523
01:07:01.517 : :01:07:01.517
01:16:00.764 : :01:16:00.764
01:21:13.285 : :01:21:13.285
01:30:33.553 : :01:30:33.553
01:38:49.340 : :01:38:49.340
01:45:41.794 : :01:45:41.794
01:54:17.350 : :01:54:17.350
скриншот   скриншот   скриншот   скриншот   скриншот   скриншот  
Железный человек 3 / Iron Man 3
Год выпуска: 2013
Страна: США, Китай
Жанр: фантастика, боевик, приключения

Продолжительность: 02:10:25
Перевод: Дубляж
Субтитры: русские (Forced), русские (Full),

Режиссер: Шейн Блэк
В ролях: Роберт Дауни мл. (Tony Stark), Гвинет Пэлтроу (Pepper Potts), Дон Чидл (Colonel James Rhodes), Гай Пирс (Aldrich Killian), Бен Кингсли (Trevor Slattery), Джеймс Бэдж Дэйл (Savin), Ребекка Холл (Maya Hansen), Тай Симпкинс (Harley Keener), Уильям Сэдлер (President Ellis), Джон Фавро (Happy Hogan), Стефани Зостак (Brandt), Пол Беттани (Jarvis, озвучка)
Описание:
Когда мир Старка рушится на его глазах по вине неизвестных противников, Тони жаждет найти виновных и свести с ними счеты. Оказавшись в безвыходной ситуации, Старк может рассчитывать только на себя и свою изобретательность, чтобы защитить тех, кто ему дорог. Это становится настоящим испытанием для героя, которому придется не только сражаться с коварным врагом, но и разобраться в себе, чтобы найти ответ на вопрос, который давно его тревожит: что важнее - человек или костюм?
Рейтинг:

Качество: BDRip 720p / 60 FPS / 60fps
Формат: MKV
Видео кодек: AVC
Аудио кодек:AC3
Видео: AVC, 1280x536 (2.40:1), 4896 kbps, 60 fps, 0,119 bpp
Аудио: русский / AC3 / 5.1 / 48 kHz / 384 kbps / 16 bit ||
Навигация по главам: есть
Релиз:
x264 [info]: frame I:3013 Avg QP:11.33 size: 98326
x264 [info]: frame P:116989 Avg QP:13.77 size: 23406
x264 [info]: frame B:349496 Avg QP:17.50 size: 5022
x264 [info]: consecutive B-frames: 2.4% 3.7% 12.8% 16.1% 64.9%


General
Unique ID : 253823184238411702803736779204594244925 (0xBEF4912E26796442955E455C24281D3D)
Complete name : D:\DVD\Iron Man Trilogy\Iron.Man.3.(2013).BDRip.720p.(60 Fps).mkv
Format : Matroska
Format version : Version 4 / Version 2
File size : 4.81 GiB
Duration : 2h 10mn
Overall bit rate : 5 285 Kbps
Movie name : Железный человек 3 / Iron Man 3 (2013) BDRip 720p от R.G. HD-Films | 60 fps
Encoded date : UTC 2015-06-22 07:06:35
Writing application : mkvmerge v6.2.0 ('Promised Land') built on Apr 28 2013 12:22:01
Writing library : libebml v1.3.0 + libmatroska v1.4.0

Video
ID : 1
Format : AVC
Format/Info : Advanced Video Codec
Format profile : High@L4.1
Format settings, CABAC : Yes
Format settings, ReFrames : 4 frames
Codec ID : V_MPEG4/ISO/AVC
Duration : 2h 10mn
Bit rate : 4 896 Kbps
Width : 1 280 pixels
Height : 536 pixels
Display aspect ratio : 2.40:1
Frame rate : 60.000 fps
Color space : YUV
Chroma subsampling : 4:2:0
Bit depth : 8 bits
Scan type : Progressive
Bits/(Pixel*Frame) : 0.119
Stream size : 4.37 GiB (91%)
Title : Iron Man 3 (2013) BDRip 720p (60 Fps).mkv
Writing library : x264 core 130 r2273 b3065e6
Encoding settings : cabac=1 / ref=4 / deblock=1:0:0 / analyse=0x3:0x113 / me=umh / subme=9 / psy=1 / psy_rd=1.00:0.00 / mixed_ref=1 / me_range=24 / chroma_me=1 / trellis=2 / 8x8dct=1 / cqm=0 / deadzone=21,11 / fast_pskip=1 / chroma_qp_offset=-2 / threads=10 / lookahead_threads=1 / sliced_threads=0 / nr=0 / decimate=1 / interlaced=0 / bluray_compat=0 / constrained_intra=0 / bframes=4 / b_pyramid=2 / b_adapt=2 / b_bias=0 / direct=3 / weightb=1 / open_gop=0 / weightp=2 / keyint=600 / keyint_min=59 / scenecut=40 / intra_refresh=0 / rc_lookahead=40 / rc=2pass / mbtree=1 / bitrate=4896 / ratetol=1.0 / qcomp=0.60 / qpmin=0 / qpmax=69 / qpstep=4 / cplxblur=20.0 / qblur=0.5 / ip_ratio=1.40 / aq=1:1.00
Language : English
Default : Yes
Forced : No

Audio
ID : 2
Format : AC-3
Format/Info : Audio Coding 3
Mode extension : CM (complete main)
Codec ID : A_AC3
Duration : 2h 10mn
Bit rate mode : Constant
Bit rate : 384 Kbps
Channel(s) : 6 channels
Channel positions : Front: L C R, Side: L R, LFE
Sampling rate : 48.0 KHz
Bit depth : 16 bits
Compression mode : Lossy
Stream size : 358 MiB (7%)
Title : AC3 DD 5.1 @ 384 Kbps DUB - Blu-Ray EUR
Language : Russian
Default : Yes
Forced : No

Text #1
ID : 3
Format : UTF-8
Codec ID : S_TEXT/UTF8
Codec ID/Info : UTF-8 Plain Text
Title : Forced
Language : Russian
Default : No
Forced : No

Text #2
ID : 4
Format : UTF-8
Codec ID : S_TEXT/UTF8
Codec ID/Info : UTF-8 Plain Text
Title : Full
Language : Russian
Default : No
Forced : No

Menu
00:00:00.000 : en:Chapter 01
00:04:52.750 : en:Chapter 02
00:07:55.433 : en:Chapter 03
00:12:12.440 : en:Chapter 04
00:19:04.101 : en:Chapter 05
00:23:47.884 : en:Chapter 06
00:29:47.702 : en:Chapter 07
00:39:46.384 : en:Chapter 08
00:45:56.044 : en:Chapter 09
00:59:19.639 : en:Chapter 10
01:01:56.921 : en:Chapter 11
01:09:24.451 : en:Chapter 12
01:18:41.508 : en:Chapter 13
01:23:52.944 : en:Chapter 14
01:37:55.995 : en:Chapter 15
01:56:18.304 : en:Chapter 16
01:59:38.754 : en:Chapter 17
скриншот   скриншот   скриншот   скриншот   скриншот   скриншот  
pb.wtf



Скачать Железный человек: Трилогия через торрент http://i70.fastpic.ru/big/2015/0622/11/cc9cd70e8d96edc7300a43cf3c4f9711.gif Скачать, смотреть онлайн Железный человек: Трилогия бесплантно в хорошем качестве Описание: Миллиардер изобретатель Тони Старк попадает в плен к Афганским террористам, которые пытаются заставить его создать оружие ... 10 10 38
Info! Золотая раздача, скачанное не засчитывается.
Торрент: Зарегистрирован [2015-06-22 09:34] · скачан: 832 раз
Статус: √ проверено
Размер: 14.22 GB
Как cкачать? Как скачать Железный человек: Трилогия через торрент | UTorrent

28-11-2019 20:33  

Отключить всю рекламу на сайте

22-06-2015 10:37 Железный человек: Трилогия Скачать торрент  

Отпишусь сразу чтобы не возникали вопросы (keyint=600 / keyint_min=59), все кодировал неделю назад, сегодня только собрал в контейнер поэтому так, в старых релизах (keyint=250) в новых будет также.
Проверенно встроенным проигрывателем на LG 42 все работает.
Перемотка работает только чуть медленее, относительно стандартных fps.pb.wtf



22-06-2015 10:57 Железный человек: Трилогия Скачать торрент  

slaventi-69, Спасибо большое.Завтра будет тоже трилогия в 1080p. :film: :hmmmpb.wtf



22-06-2015 14:06 Железный человек: Трилогия Скачать торрент  

ребят вы лучшие ! огромное спасибо за ваши труды !pb.wtf



24-06-2015 13:46 Железный человек: Трилогия Скачать торрент  

За раздачу спасибо, еще фильмы в коллекции 60fps.pb.wtf



06-05-2016 04:23 Железный человек: Трилогия Скачать торрент  

На раздачу вернитесь пожалуйста.pb.wtf



04-12-2017 18:02 Железный человек: Трилогия Скачать торрент  

Спасибо. Но жаль нет английской дорожки. А дорожки из других раздач не очень синхронизируютсяpb.wtf



02-06-2018 05:26 Железный человек: Трилогия Скачать торрент  

Встаньте на раздачу плизpb.wtf



    Дорогой пользователь! Огромная просьба, поблагодарите релизера, оцените раздачу и оставьте свои комментарий, если Вы скачали Железный человек: Трилогия через торрент бесплатно!
    Комментировать посты могут только пользователи прошедшие не сложную регистрацию
    Показать сообщения:    

    Железный человек: Трилогия через торрент
    Скачать бесплатно Железный человек: Трилогия
    Железный человек: Трилогия скачать торрент
    Железный человек: Трилогия смотреть онлайн
    Cкачать фильм Железный человек: Трилогия бесплатно
    Железный человек: Трилогия скачать торрент в хорошем качестве
    Железный человек: Трилогия смотреть онлайн бесплатно в хорошем качестве


    Вы не можете начинать темы
    Вы не можете отвечать на сообщения
    Вы не можете редактировать свои сообщения
    Вы не можете удалять свои сообщения
    Вы не можете голосовать в опросах
    Вы не можете прикреплять файлы к сообщениям
    Вы можете скачивать файлы