Присоединяйтесь к нам в Telegram!, здесь всегда актуальный адрес сайта, оперативная поддержка и многое другое!!

>

5.9

iTunes

7.4

iTunes

9.4

1 сезон

1

7.4

2 сезон

7.2

iTunes

7.3

1 сезон

13

6.1

iTunes

8.3

GOG

30

ULTIMATE

pack

9.9

Лицензия

ВАЖНО

ИГРА 18+

pack

7.3

RePack

MK11

7.7

RePack

jed

7.8

RePack

fifa19

8.5

RePack

RDR2

RePack

NEED FOR SPEED™ PAYBACK

5 сезон

9 сезон

Бесстыжие 9 сезон

Все сериалы

все сериалы на PB.wtf

RePack

FAR CRY 5

Anonymous, доброе утро, мы катастрофически не успеваем собрать деньги на оплату серверов, помогите нам пожалуйста 5,10,15р., для нас важна любая помощь . В качестве благодарности мы отключим Вам всю рекламу на сайте (укажите свой ник в строку Ваше имя)!

×
  
Magnet ссылка

Желания женщин / Women Desires Part.3 [2015 г., Adult erotic music clips, WEB-DLRip 1080p, Оригинал] pb.wtf

Желания женщин через торрент pb.wtf

Размер: 3.72 GB | Добавлен: 6 лет 5 мес. назад | Торрент скачан:284 раза
Смотреть онлайн Желания женщин | Скачать    Ребята, помогите собрать деньги на оплату серверов!!!

22-06-2015 11:54 Желания женщин Скачать торрент  

Желания женщин / Women Desires Part.3
Год выпуска: 2015
Страна: All World
Жанр: Adult erotic music clips
Продолжительность: 02:22:33
Перевод: Оригинал

Описание:
Много ли на свете вещей прекраснее, чем красота женщины? В этих клипах - загадочная одухотворённость, манящая нежность, бодрящая весёлость, совершенство форм и неповторимость женского начала! Изящество и простота, ностальгичность и жизнерадостность, игривость и величие, молодость и зрелость, преданность и лукавость - клипы на любой вкус. (Часть 3)
01. Leyla - Sunny Climax
02. Arina - Cranne
03. Una Piccola - Trogata
04. Jessi Marieall - Legs on Deck
05. Good Morning my LOVE !
06. Antea - Mozaika
07. Caress 12 (Maiden Sequence)
08. Chelsie Aryn
09. Lesbo Killer Dolls
10. Dani Mathers
11. Republique - Filles du Calvaire
12. Valentina Leo - One In Her Self
13. Taylor Seinturier Sexy Video
14. Darina & Lola - Sexy Styling
15. Emily - Self Loving
16. Jayd - A Yellowbox
17. Salomja - A Presenting
18. Decouvre - Toi (2)
19. Amelia Talon - Directors choice
20. Elizabeth Jean - Student bodies
21. Geralyn Fillipi - Betty Danger
22. Hot Summer II in THE MIX - (Bonnie Tyler)
23. Taylor Seinturier - Sweet Thigh Highs
24. Candice - Efula
25. Lace Shadows
26. StasyQ #109
27. Magena Yama
28. Tornado18+ SEXY GIRL (Lady O)
29. Summer and ICE in Art
30. Lesbo Killer Dolls 2
Качество: WEB-DLRip 1080p
Формат: MP4
Видео кодек: AVC
Аудио кодек: AAC
Видео: AVC, 1280x720,1920x1080 (16:9), 25.000 fps, 8 000 Kbps (0.154 bit/pixel)
Аудио#1: AAC LC, 44.1 KHz, 2 ch, 152-160 Kbps, VBR (English)
скриншот   скриншот   скриншот   скриншот   скриншот   скриншот  
скриншот   скриншот   скриншот   скриншот   скриншот   скриншот  

Общее
Полное имя : C:\Раздача\Клипы\Women Desires Part.3 (2015)\01. Leyla - Sunny Climax.mp4
Формат : MPEG-4
Профиль формата : Base Media
Идентификатор кодека : isom
Размер файла : 445 Мбайт
Продолжительность : 7 м. 42 с.
Режим общего битрейта : Переменный
Общий поток : 8056 Кбит/сек
Коллекция : Leyla_sunny_climax
Тип содержимого : Short Film
Программа кодирования : Lavf55.19.104

Видео
Идентификатор : 1
Формат : AVC
Формат/Информация : Advanced Video Codec
Профиль формата : High@L4.0
Параметр CABAC формата : Да
Параметр ReFrames формата : 4 кадра
Идентификатор кодека : avc1
Идентификатор кодека/Информация : Advanced Video Coding
Продолжительность : 7 м. 42 с.
Битрейт : 8000 Кбит/сек
Ширина : 1920 пикселей
Высота : 1080 пикселей
Соотношение сторон : 16:9
Режим частоты кадров : Постоянный
Частота кадров : 25,000 кадров/сек
Цветовое пространство : YUV
Субдискретизация насыщенности : 4:2:0
Битовая глубина : 8 бит
Тип развёртки : Прогрессивная
Бит/(Пиксели*Кадры) : 0.154
Размер потока : 436 Мбайт (98%)
Библиотека кодирования : x264 core 119
Настройки программы : cabac=1 / ref=1 / deblock=1:0:0 / analyse=0x3:0x3 / me=dia / subme=1 / psy=1 / psy_rd=1.00:0.00 / mixed_ref=0 / me_range=16 / chroma_me=1 / trellis=0 / 8x8dct=1 / cqm=0 / deadzone=21,11 / fast_pskip=1 / chroma_qp_offset=0 / threads=6 / sliced_threads=0 / nr=0 / decimate=1 / interlaced=0 / bluray_compat=0 / constrained_intra=0 / bframes=3 / b_pyramid=2 / b_adapt=1 / b_bias=0 / direct=1 / weightb=1 / open_gop=0 / weightp=1 / keyint=250 / keyint_min=25 / scenecut=40 / intra_refresh=0 / rc=abr / mbtree=0 / bitrate=8000 / ratetol=1.0 / qcomp=0.60 / qpmin=0 / qpmax=69 / qpstep=4 / ip_ratio=1.40 / pb_ratio=1.30 / aq=1:1.00
Язык : English

Аудио
Идентификатор : 2
Формат : AAC
Формат/Информация : Advanced Audio Codec
Профиль формата : LC
Идентификатор кодека : 40
Продолжительность : 7 м. 42 с.
Duration_LastFrame : -17 мс.
Вид битрейта : Переменный
Битрейт : 152 Кбит/сек
Максимальный битрейт : 192 Кбит/сек
Каналы : 2 канала
Расположение каналов : Front: L R
Частота : 44,1 КГц
Метод сжатия : С потерями
Размер потока : 8,39 Мбайт (2%)
Язык : English

Общее
Полное имя : C:\Раздача\Клипы\Women Desires Part.3 (2015)\05. Good Morning my LOVE !.mp4
Формат : MPEG-4
Профиль формата : Base Media / Version 2
Идентификатор кодека : mp42
Размер файла : 71,6 Мбайт
Продолжительность : 3 м. 49 с.
Режим общего битрейта : Переменный
Общий поток : 2611 Кбит/сек
Дата кодирования : UTC 2015-06-02 11:23:10
Дата пометки : UTC 2015-06-02 11:23:10

Видео
Идентификатор : 1
Формат : AVC
Формат/Информация : Advanced Video Codec
Профиль формата : High@L3.1
Параметр CABAC формата : Да
Параметр ReFrames формата : 4 кадра
Идентификатор кодека : avc1
Идентификатор кодека/Информация : Advanced Video Coding
Продолжительность : 3 м. 49 с.
Битрейт : 2447 Кбит/сек
Ширина : 1280 пикселей
Высота : 720 пикселей
Соотношение сторон : 16:9
Режим частоты кадров : Постоянный
Частота кадров : 23,976 кадра/сек
Цветовое пространство : YUV
Субдискретизация насыщенности : 4:2:0
Битовая глубина : 8 бит
Тип развёртки : Прогрессивная
Бит/(Пиксели*Кадры) : 0.111
Размер потока : 67,1 Мбайт (94%)
Библиотека кодирования : x264 core 146 r16 121396c
Настройки программы : cabac=1 / ref=3 / deblock=1:0:0 / analyse=0x3:0x113 / me=hex / subme=7 / psy=1 / psy_rd=1.00:0.00 / mixed_ref=1 / me_range=16 / chroma_me=1 / trellis=1 / 8x8dct=1 / cqm=0 / deadzone=21,11 / fast_pskip=1 / chroma_qp_offset=-2 / threads=48 / lookahead_threads=5 / sliced_threads=0 / nr=0 / decimate=1 / interlaced=0 / bluray_compat=0 / stitchable=1 / constrained_intra=0 / bframes=3 / b_pyramid=2 / b_adapt=1 / b_bias=0 / direct=1 / weightb=1 / open_gop=0 / weightp=2 / keyint=infinite / keyint_min=23 / scenecut=40 / intra_refresh=0 / rc_lookahead=40 / rc=crf / mbtree=1 / crf=20.0 / qcomp=0.60 / qpmin=5 / qpmax=69 / qpstep=4 / vbv_maxrate=2750 / vbv_bufsize=7500 / crf_max=0.0 / nal_hrd=none / filler=0 / ip_ratio=1.40 / aq=1:1.00
Дата кодирования : UTC 2015-06-02 11:23:10
Дата пометки : UTC 2015-06-02 11:23:10
Основные цвета : BT.709
Характеристики трансфера : BT.709
Коэффициенты матрицы : BT.709

Аудио
Идентификатор : 2
Формат : AAC
Формат/Информация : Advanced Audio Codec
Профиль формата : LC
Идентификатор кодека : 40
Продолжительность : 3 м. 49 с.
Вид битрейта : Переменный
Битрейт : 160 Кбит/сек
Каналы : 2 канала
Расположение каналов : Front: L R
Частота : 48,0 КГц
Метод сжатия : С потерями
Размер потока : 4,39 Мбайт (6%)
Дата кодирования : UTC 2015-06-02 11:23:10
Дата пометки : UTC 2015-06-02 11:23:10

pb.wtf



Скачать Желания женщин через торрент https://pic.kartinco.top/images/11/95n3l.jpg Скачать, смотреть онлайн Желания женщин бесплантно в хорошем качестве Описание: Много ли на свете вещей прекраснее, чем красота женщины? В этих клипах - загадочная одухотворённость, манящая нежность, бодрящая ... 9.5 10 25
Info! Золотая раздача, скачанное не засчитывается.
Торрент: Зарегистрирован [2015-06-22 11:54] · скачан: 284 раз
Статус: √ проверено
Размер: 3.72 GB
Как cкачать? Как скачать Желания женщин через торрент | UTorrent

28-11-2019 20:33  

Отключить всю рекламу на сайте

    Дорогой пользователь! Огромная просьба, поблагодарите релизера, оцените раздачу и оставьте свои комментарий, если Вы скачали Желания женщин через торрент бесплатно!
    Комментировать посты могут только пользователи прошедшие не сложную регистрацию
    Показать сообщения:    

    Желания женщин через торрент
    Скачать бесплатно Желания женщин
    Желания женщин скачать торрент
    Желания женщин смотреть онлайн
    Cкачать фильм Желания женщин бесплатно
    Желания женщин скачать торрент в хорошем качестве
    Желания женщин смотреть онлайн бесплатно в хорошем качестве


    Вы не можете начинать темы
    Вы не можете отвечать на сообщения
    Вы не можете редактировать свои сообщения
    Вы не можете удалять свои сообщения
    Вы не можете голосовать в опросах
    Вы не можете прикреплять файлы к сообщениям
    Вы можете скачивать файлы