2 сезон

iTunes

MVO

1

2 сезон

iTunes

iTunes

1 сезон

RePack

30

Новинка

ВАЖНО

ИГРА 18+

pack

RePack

MK11
pack

Легкие деньги

RePack

jed

RePack

fifa19

RePack

RDR2

RePack

NEED FOR SPEED™ PAYBACK

4 сезон

9 сезон

Бесстыжие 9 сезон

Все сериалы

все сериалы на PB.wtf

RePack

FAR CRY 5

Anonymous, добрый день, мы не успеваем собрать деньги на оплату серверов за декабрь и январь, помогите нам пожалуйста в это трудное время. В качестве благодарности мы отключим Вам всю рекламу на сайте (укажите свой ник в строку Ваше имя)!

×
  
Magnet ссылка

От колыбели до могилы / Cradle 2 the Grave (Анджей Бартковяк / Andrzej Bartkowiak) [2003, Боевик, триллер, драма, криминал, BDRip 720p] 60fps от R.G. HD-Films pb.wtf

От колыбели до могилы через торрент pb.wtf

Раздают: 1 [ 0 KB/s ]
Размер: 3.58 GB | Добавлен: 5 лет 7 мес. назад | Торрент скачан:376 раз
Скачать  

22-06-2015 13:46 От колыбели до могилы Скачать торрент  

От колыбели до могилы / Cradle 2 the Grave
Год выпуска: 2003
Страна: США
Жанр: боевик, триллер, драма, криминал

Продолжительность: 01:41:12
Перевод: Профессиональный (многоголосый закадровый)
Субтитры: русские (Full),
Режиссер: Анджей Бартковяк
В ролях: Джет Ли (Su), DMX (Anthony Fait), Энтони Андерсон (Tommy), Келли Ху (Sona), Том Арнольд (Archie), Марк Дакаскос (Ling), Гэбриэл Юнион (Daria), Майкл Джейс (Odion), Драг-Он (Miles), Пейдж Херд (Vanessa), Паоло Сеганти (Christophe), Ричард Трапп (Douglas)
Описание:
Профессиональный грабитель и секретный агент объединяют свои усилия в борьбе против банды свирепых гангстеров под руководством жестокого мафиози... В центре сюжета - бесценные сокровища - черные алмазы из Тайваня. Сначала их похищает банда чернокожего вора Тони Фейта. Но драгоценности приносят ему лишь неприятности: хозяин камешков, торговец оружием Линг, похищает дочь Фейта и требует вернуть бриллианты.
Только возвращать уже нечего: камни снова украдены, на этот раз бандой местного мафиози Джамба Чемберса. Чтобы вернуть дочь и уцелеть самому, Фейт вынужден объединиться с агентом тайваньской разведки Су, который тоже идет по следу бриллиантов. Дело в том, что черные алмазы - совсем не ювелирные драгоценности...

Рейтинг:

Качество: BDRip 720p / 60fps
Формат: MKV
Видео кодек: AVC
Аудио кодек:AC3
Видео: AVC, 1280x528 (2.40:1), 4573 kbps, 59,940 fps, 0,113 bpp
Аудио: русский / AC3 / 5.1 / 48 kHz / 384 kbps / 16 bit ||
Навигация по главам: есть
Релиз:

скриншот   скриншот   скриншот   скриншот   скриншот   скриншот  
x264 [info]: frame I:3510 Avg QP:14.68 size: 85935
x264 [info]: frame P:101685 Avg QP:18.25 size: 23424
x264 [info]: frame B:258806 Avg QP:21.01 size: 3329
x264 [info]: consecutive B-frames: 7.0% 3.9% 6.2% 26.5% 56.4%


Общее
Уникальный идентификатор : 217495902150256931861622796274730720151 (0xA3A02FE408A6E5DDBDCD44508DF6DB97)
Полное имя : D:\DVD\Cradle.2.The.Grave.(2003).BDRip.720p.(60 Fps).mkv
Формат : Matroska
Версия формата : Version 4 / Version 2
Размер файла : 3,58 Гбайт
Продолжительность : 1 ч. 41 м.
Общий поток : 5058 Кбит/сек
Название фильма : От колыбели до могилы / Cradle 2 the Grave (2003) BDRip 720p от R.G. HD-Films | 60 fps
Дата кодирования : UTC 2015-06-14 08:55:16
Программа кодирования : mkvmerge v6.2.0 ('Promised Land') built on Apr 28 2013 12:22:01
Библиотека кодирования : libebml v1.3.0 + libmatroska v1.4.0

Видео
Идентификатор : 1
Формат : AVC
Формат/Информация : Advanced Video Codec
Профиль формата : High@L4.1
Параметр CABAC формата : Да
Параметр ReFrames формата : 4 кадра
Идентификатор кодека : V_MPEG4/ISO/AVC
Продолжительность : 1 ч. 41 м.
Битрейт : 4574 Кбит/сек
Ширина : 1280 пикселей
Высота : 528 пикселей
Соотношение сторон : 2,40:1
Режим частоты кадров : Постоянный
Частота кадров : 59,880 кадров/сек
Частота кадров в оригинале : 59,940 кадров/сек
Цветовое пространство : YUV
Субдискретизация насыщенности : 4:2:0
Битовая глубина : 8 бит
Тип развёртки : Прогрессивная
Бит/(Пиксели*Кадры) : 0.113
Размер потока : 3,23 Гбайт (90%)
Заголовок : Cradle 2 the Grave (2003) BDRip 720p (60 Fps).mkv
Библиотека кодирования : x264 core 130 r2273 b3065e6
Настройки программы : cabac=1 / ref=4 / deblock=1:0:0 / analyse=0x3:0x113 / me=umh / subme=8 / psy=1 / psy_rd=1.00:0.00 / mixed_ref=1 / me_range=24 / chroma_me=1 / trellis=2 / 8x8dct=1 / cqm=0 / deadzone=21,11 / fast_pskip=1 / chroma_qp_offset=-2 / threads=3 / lookahead_threads=1 / sliced_threads=0 / nr=0 / decimate=1 / interlaced=0 / bluray_compat=0 / constrained_intra=0 / bframes=4 / b_pyramid=2 / b_adapt=2 / b_bias=0 / direct=1 / weightb=1 / open_gop=0 / weightp=2 / keyint=600 / keyint_min=59 / scenecut=40 / intra_refresh=0 / rc_lookahead=40 / rc=crf / mbtree=1 / crf=16.0 / qcomp=0.60 / qpmin=0 / qpmax=69 / qpstep=4 / ip_ratio=1.40 / aq=1:1.00
Язык : English
Default : Да
Forced : Нет

Аудио
Идентификатор : 2
Формат : AC-3
Формат/Информация : Audio Coding 3
Расширение режима : CM (complete main)
Параметр Endianness формата : Big
Идентификатор кодека : A_AC3
Продолжительность : 1 ч. 41 м.
Вид битрейта : Постоянный
Битрейт : 384 Кбит/сек
Каналы : 6 каналов
Расположение каналов : Front: L C R, Side: L R, LFE
Частота : 48,0 КГц
Битовая глубина : 16 бит
Метод сжатия : С потерями
Размер потока : 278 Мбайт (8%)
Заголовок : MVO (R5)
Язык : Russian
Default : Да
Forced : Нет

Текст
Идентификатор : 3
Формат : UTF-8
Идентификатор кодека : S_TEXT/UTF8
Идентификатор кодека/Информация : UTF-8 Plain Text
Заголовок : Full
Язык : Russian
Default : Нет
Forced : Нет

Меню
00:00:00.000 : en:Chapter1
00:04:01.074 : en:Chapter2
00:06:40.650 : en:Chapter3
00:09:34.156 : en:Chapter4
00:13:09.330 : en:Chapter5
00:18:28.107 : en:Chapter6
00:23:02.881 : en:Chapter7
00:27:14.799 : en:Chapter8
00:31:29.929 : en:Chapter9
00:35:45.643 : en:Chapter10
00:39:03.424 : en:Chapter11
00:43:35.529 : en:Chapter12
00:46:15.939 : en:Chapter13
00:51:40.138 : en:Chapter14
00:54:34.312 : en:Chapter15
00:56:20.293 : en:Chapter16
00:59:40.285 : en:Chapter17
01:03:28.763 : en:Chapter18
01:09:40.259 : en:Chapter19
01:12:07.448 : en:Chapter20
01:15:41.370 : en:Chapter21
01:18:40.632 : en:Chapter22
01:23:23.748 : en:Chapter23
01:27:21.361 : en:Chapter24
01:30:39.267 : en:Chapter25
01:34:31.874 : en:Chapter26
01:36:29.784 : en:Chapter27
01:37:32.346 : en:Chapter28
01:41:12.566 : en:Chapter29
Просьба к переливающим на другие сайты, в оформлении указывайте пожалуйста авторство группы R.G. HD-Films pb.wtf



Скачать От колыбели до могилы через торрент http://i70.fastpic.ru/big/2015/0622/1b/e84d6df71323c1b2fc98f5d1aed3eb1b.jpg Скачать фильм От колыбели до могилы через торрент бесплантно в хорошем качестве Описание: Профессиональный грабитель и секретный агент объединяют свои усилия в борьбе против банды свирепых гангстеров под руководством ... 9.2 10 21
Info! Золотая раздача, скачанное не засчитывается.
Торрент: Зарегистрирован [2015-06-22 13:46] · скачан: 376 раз
Статус: √ проверено
Размер: 3.58 GB
Как cкачать? Как скачать От колыбели до могилы через торрент | UTorrent

28-11-2019 20:33  

Отключить всю рекламу на сайте

23-06-2015 04:00 От колыбели до могилы Скачать торрент  

очень не скучно смотреть. рекомендую.pb.wtf



23-06-2015 12:15 От колыбели до могилы Скачать торрент  

1080 непредвидится?pb.wtf



23-06-2015 13:22 От колыбели до могилы Скачать торрент  

Простите, но от меня - нет.pb.wtf



03-04-2020 17:35 От колыбели до могилы Скачать торрент  

хороший фильм , можно и пересмотреть pb.wtf



    Дорогой пользователь! Огромная просьба, поблагодарите релизера, оцените раздачу и оставьте свои комментарий, если Вы скачали От колыбели до могилы через торрент бесплатно! Внесите свою лепту в развитие PiratBit!
    Комментировать посты могут только пользователи прошедшие не сложную регистрацию
    Показать сообщения:    

    От колыбели до могилы через торрент
    Скачать бесплатно От колыбели до могилы
    От колыбели до могилы скачать торрент
    От колыбели до могилы смотреть онлайн
    Cкачать фильм От колыбели до могилы бесплатно
    От колыбели до могилы скачать торрент в хорошем качестве
    От колыбели до могилы смотреть онлайн бесплатно в хорошем качестве


    Вы не можете начинать темы
    Вы не можете отвечать на сообщения
    Вы не можете редактировать свои сообщения
    Вы не можете удалять свои сообщения
    Вы не можете голосовать в опросах
    Вы не можете прикреплять файлы к сообщениям
    Вы можете скачивать файлы