Ссылка на приватное зеркало нашего сайта всего за 1$. Внимание количество ограничено!!!

2 сезон

iTunes

1 сезон

1

iTunes

iTunes

iTunes

1 сезон

RePack

30

ИГРА 18+

pack

ВАЖНО

!!Акция!!

Alien_RageХит недели

RePack

MK11
pack

Забери бонус

RePack

jed

!!Акция!!

Alien_Rage

RePack

fifa19

RePack

Assassins Creed: Odyssey

RePack

NEED FOR SPEED™ PAYBACK

4 сезон

9 сезон

Бесстыжие 9 сезон

Все сериалы

все сериалы на PB.wtf

RePack

FAR CRY 5
  

Ледниковый период / Серии: 1-8 из 8 (Александр Буравский) [2002, Криминальная драма, SATRip-AVC] pb.wtf

Ледниковый период через торрент pb.wtf

Размер: 6.19 GB | Добавлен: 5 лет 4 мес. назад | Торрент скачан:361 раз
Скачать  

22-06-2015 15:09 Ледниковый период Скачать торрент  

Ледниковый период Год выпуска: 2002
Производство: ТК «Версия», по заказу ОРТ
Жанр: Криминальная драма
Продолжительность: ~00:49:00
Субтитры: нет

Режиссёр: Александр Буравский

В ролях: Александр Абдулов, Марат Башаров, Александр Бухаров, Павел Деревянко, Елена Коренева, Игорь Лифанов, Владимир Меньшов, Мария Миронова, Сосо Павлиашвили, Игорь Регнер, Ирина Розанова, Андрей Смоляков, Светлана Тимофеева-Летуновская, Рафаэль Мукаев, Егор Пазенко, Сергей Астахов, Александр Гавриков, Заза Наполи, Дмитрий Броничи, Сергей Мищенко, Иван Агапов, Александр Аншютц, Владимир Яканин, Борис Репетур, Михаил Лукашов, Николай Хмелёв, Анна Воронова, Мария Аронова, Александр Резалин, Игорь Бочкин, Александр Песков, Александр Семчев, Владимир Литвинов, Зураб Кипшидзе, Александр Числов, Никита Логинов

Описание: Действие происходит в середине 90-х годов. В это время по распоряжению Министерства внутренних дел России был учрежден отдел по борьбе с преступностью и бандитизмом, который прикрепили к МУРу. Была собрана команда из двенадцати человек под руководством подполковника Игоря Клепко. Отважной команде Клепко предстоит вступить в неравную схватку с крупной криминальной группировкой, возглавляемой бандитом по кличке Рокки.



Качество: SATRip-AVC
Формат: MKV
Видео кодек: H.264
Аудио кодек: AC3
Видео: MPEG4 Video (H264), 720x448, 25fps,2184 Kbps,bit/pixel 0.242
Аудио: AC3 48000Hz, stereo, 192kbps,2 ch
Общее
Уникальный идентификатор : 207206110240344583887739744022372909738 (0x9BE271FB107A69D1BB7E9269301D82AA)
Полное имя : F:\Ледниковый период\Ледниковый период - 1 серия.mkv
Формат : Matroska
Версия формата : Version 2
Размер файла : 773 Мбайт
Продолжительность : 49 м.
Общий поток : 2184 Кбит/сек
Дата кодирования : UTC 2015-06-22 01:16:27
Программа кодирования : mkvmerge v7.8.0 ('River Man') 32bit built on Apr 3 2015 12:11:22
Библиотека кодирования : libebml v1.3.1 + libmatroska v1.4.2

Видео
Идентификатор : 1
Формат : AVC
Формат/Информация : Advanced Video Codec
Профиль формата : High@L3.1
Параметр CABAC формата : Да
Параметр ReFrames формата : 9 кадров
Идентификатор кодека : V_MPEG4/ISO/AVC
Продолжительность : 49 м.
Битрейт : 1949 Кбит/сек
Ширина : 720 пикселей
Высота : 448 пикселей
Соотношение сторон : 16:10
Режим частоты кадров : Постоянный
Частота кадров : 25,000 кадров/сек
Цветовое пространство : YUV
Субдискретизация насыщенности : 4:2:0
Битовая глубина : 8 бит
Тип развёртки : Прогрессивная
Бит/(Пиксели*Кадры) : 0.242
Размер потока : 690 Мбайт (89%)
Библиотека кодирования : x264 core 146 r2538 121396c
Настройки программы : cabac=1 / ref=9 / deblock=1:-3:-3 / analyse=0x3:0x113 / me=umh / subme=9 / psy=1 / psy_rd=1.00:0.00 / mixed_ref=1 / me_range=16 / chroma_me=1 / trellis=2 / 8x8dct=1 / cqm=0 / deadzone=21,11 / fast_pskip=1 / chroma_qp_offset=-2 / threads=4 / lookahead_threads=4 / sliced_threads=0 / nr=0 / decimate=0 / interlaced=0 / bluray_compat=0 / constrained_intra=0 / bframes=9 / b_pyramid=2 / b_adapt=1 / b_bias=0 / direct=1 / weightb=1 / open_gop=0 / weightp=2 / keyint=250 / keyint_min=25 / scenecut=40 / intra_refresh=0 / rc_lookahead=30 / rc=crf / mbtree=1 / crf=18.0 / qcomp=0.60 / qpmin=0 / qpmax=69 / qpstep=4 / vbv_maxrate=14000 / vbv_bufsize=14000 / crf_max=0.0 / nal_hrd=none / filler=0 / ip_ratio=1.40 / aq=1:1.00
Default : Да
Forced : Нет
Цветовой диапазон : Limited
Основные цвета : BT.601 PAL
Характеристики трансфера : BT.470 System B, BT.470 System G
Коэффициенты матрицы : BT.601

Аудио
Идентификатор : 2
Формат : AC-3
Формат/Информация : Audio Coding 3
Расширение режима : CM (complete main)
Параметр Endianness формата : Big
Идентификатор кодека : A_AC3
Продолжительность : 49 м.
Вид битрейта : Постоянный
Битрейт : 192 Кбит/сек
Каналы : 2 канала
Расположение каналов : Front: L R
Частота : 48,0 КГц
Метод сжатия : С потерями
Размер потока : 68,0 Мбайт (9%)
Default : Да
Forced : Нет
Рекламы нет.Добавлены 5-8 серияpb.wtf



Скачать Ледниковый период через торрент http://i71.fastpic.ru/big/2015/0622/5c/fc83322f5613c719c2aea438885ba95c.jpg Скачать фильм Ледниковый период через торрент бесплантно в хорошем качестве Описание: Действие происходит в середине 90-х годов. В это время по распоряжению Министерства внутренних дел России был учрежден отдел по ... 9.1 10 17
Info! Золотая раздача, скачанное не засчитывается.
Торрент: Зарегистрирован [2015-06-25 14:16] · скачан: 361 раз
Статус: √ проверено
Размер: 6.19 GB
Как cкачать? Как скачать Ледниковый период через торрент | qTorrent

28-11-2019 20:33  

Отключить всю рекламу на сайте

    Дорогой пользователь! Огромная просьба, поблагодарите релизера, оцените раздачу и оставьте свои комментарий, если Вы скачали Ледниковый период через торрент бесплатно! Внесите свою лепту в развитие PiratBit!
    Комментировать посты могут только пользователи прошедшие не сложную регистрацию
    Показать сообщения:    

    Ледниковый период через торрент
    Скачать бесплатно Ледниковый период
    Ледниковый период скачать торрент
    Ледниковый период смотреть онлайн
    Cкачать фильм Ледниковый период бесплатно
    Ледниковый период скачать торрент в хорошем качестве
    Ледниковый период смотреть онлайн бесплатно в хорошем качестве


    Вы не можете начинать темы
    Вы не можете отвечать на сообщения
    Вы не можете редактировать свои сообщения
    Вы не можете удалять свои сообщения
    Вы не можете голосовать в опросах
    Вы не можете прикреплять файлы к сообщениям
    Вы можете скачивать файлы