Ссылка на приватное зеркало нашего сайта всего за 1$. Внимание количество ограничено!!!

2 сезон

iTunes

1 сезон

1

2 сезон

2 сезон

iTunes

1 сезон

RePack

30

Новинка

ВАЖНО

ИГРА 18+

pack

RePack

MK11
pack

Забери бонус

RePack

jed

!!Акция!!

Alien_Rage

RePack

fifa19

RePack

Assassins Creed: Odyssey

RePack

NEED FOR SPEED™ PAYBACK

4 сезон

9 сезон

Бесстыжие 9 сезон

Все сериалы

все сериалы на PB.wtf

RePack

FAR CRY 5
  

Охота за мертвецом / Prey for Death (Рене Перез / Rene Perez) [2015, США, вестерн, BDRip-AVC, Любительский (одноголосый) [Xixidok] + ENG pb.wtf

Охота за мертвецом через торрент pb.wtf

Размер: 1.56 GB | Добавлен: 5 лет 5 мес. назад | Торрент скачан:123 раза
Скачать  

23-06-2015 09:37 Охота за мертвецом Скачать торрент  

Охота за мертвецом / Prey for Death


  • Год выпуска: 2015
  • Страна: США
  • Жанр: вестерн
  • Продолжительность: 01:20:11
  • Перевод: Любительский (одноголосый) [Xixidok]
  • Субтитры: английские, Dutch
  • Режиссер: Рене Перез / Rene Perez
  • В ролях:

    Коннор Триннир (Chamberlain), Robert Koroluck (Baron Emerson), Надия Ланфранкони (Maria), Jay Kwon (Kowloon), Лея Перес (Leia), Kaula Reed (Orphanage Lady), Хареф Топет (Bandit)

  • Описание:
    Достаточно обеспеченный Барон Эмерсон, занимается своим любимым делом - охотой. Но в качестве жертвы он использует не представителей фауны, а живых людей. В качестве очередного трофея необычный охотник выбирает себе заключенного Чемберлина. Преступник все равно уже приговорен к смерти. Поэтому он соглашается на предложение Барона: получить свободу в обмен на то, что он станет объектом охоты. Ведь тут у Чемберлина есть шанс выжить. Однако эта задача оказалась намного сложнее, чем предполагал Чемберлин...
  • Рейтинг:



  • Качество: BDRip-AVC
  • Формат: :MKV
  • Видео кодек: AVC
  • Аудио кодек: AC3
  • Видео: 1024x576 (16:9), 1888 kbps, 23,976 fps, 0,134 bpp
  • Аудио №1: русский / 5.1 / 48 kHz / 448 kbps / 16 bit |[Xixidok]|
  • Аудио №2: английский / 5.1 / 48 kHz / 448 kbps / 16 bit
  • Релиз от: GEKADOL

    Код:

    General
    Unique ID                                : 199611133830471617299196745910501462574 (0x962BB4BB9C75E5DA9AC388C3B2DF522E)
    Complete name                            : D:\Фильмы\Prey.for.Death.2015.xixidok.BDRip.AVC.ExKinoRay.mkv
    Format                                   : Matroska
    Format version                           : Version 4 / Version 2
    File size                                : 1.56 GiB
    Duration                                 : 1h 20mn
    Overall bit rate                         : 2 785 Kbps
    Movie name                               : Prey for Death 2015 from ExKinoRay
    Encoded date                             : UTC 2015-06-22 19:40:30
    Writing application                      : mkvmerge v6.6.0 ('The Edge Of The In Between') built on Dec  1 2013 17:55:00
    Writing library                          : libebml v1.3.0 + libmatroska v1.4.1

    Video
    ID                                       : 1
    Format                                   : AVC
    Format/Info                              : Advanced Video Codec
    Format profile                           : High@L4.1
    Format settings, CABAC                   : Yes
    Format settings, ReFrames                : 10 frames
    Codec ID                                 : V_MPEG4/ISO/AVC
    Duration                                 : 1h 20mn
    Bit rate                                 : 1 888 Kbps
    Width                                    : 1 024 pixels
    Height                                   : 576 pixels
    Display aspect ratio                     : 16:9
    Frame rate                               : 23.976 fps
    Color space                              : YUV
    Chroma subsampling                       : 4:2:0
    Bit depth                                : 8 bits
    Scan type                                : Progressive
    Bits/(Pixel*Frame)                       : 0.134
    Stream size                              : 1.03 GiB (66%)
    Title                                    : Enigma
    Writing library                          : x264 core 133 r2334 a3ac64b
    Encoding settings                        : cabac=1 / ref=10 / deblock=1:-2:-2 / analyse=0x3:0x113 / me=umh / subme=10 / psy=1 / psy_rd=1.05:0.15 / mixed_ref=1 / me_range=32 / chroma_me=1 / trellis=2 / 8x8dct=1 / cqm=0 / deadzone=21,11 / fast_pskip=0 / chroma_qp_offset=-3 / threads=12 / lookahead_threads=2 / sliced_threads=0 / nr=0 / decimate=0 / interlaced=0 / bluray_compat=0 / constrained_intra=0 / bframes=9 / b_pyramid=2 / b_adapt=2 / b_bias=0 / direct=3 / weightb=1 / open_gop=0 / weightp=2 / keyint=240 / keyint_min=23 / scenecut=40 / intra_refresh=0 / rc=2pass / mbtree=0 / bitrate=1888 / ratetol=1.0 / qcomp=0.65 / qpmin=0 / qpmax=51 / qpstep=4 / cplxblur=20.0 / qblur=0.5 / ip_ratio=1.40 / pb_ratio=1.30 / aq=1:1.00
    Language                                 : English
    Default                                  : Yes
    Forced                                   : No
    Color primaries                          : BT.709-5, BT.1361, IEC 61966-2-4, SMPTE RP177
    Transfer characteristics                 : BT.709-5, BT.1361
    Matrix coefficients                      : BT.709-5, BT.1361, IEC 61966-2-4 709, SMPTE RP177

    Audio #1
    ID                                       : 2
    Format                                   : AC-3
    Format/Info                              : Audio Coding 3
    Mode extension                           : CM (complete main)
    Codec ID                                 : A_AC3
    Duration                                 : 1h 20mn
    Bit rate mode                            : Constant
    Bit rate                                 : 448 Kbps
    Channel(s)                               : 6 channels
    Channel positions                        : Front: L C R, Side: L R, LFE
    Sampling rate                            : 48.0 KHz
    Bit depth                                : 16 bits
    Compression mode                         : Lossy
    Stream size                              : 257 MiB (16%)
    Title                                    : xixidok
    Language                                 : Russian
    Default                                  : Yes
    Forced                                   : No

    Audio #2
    ID                                       : 3
    Format                                   : AC-3
    Format/Info                              : Audio Coding 3
    Mode extension                           : CM (complete main)
    Codec ID                                 : A_AC3
    Duration                                 : 1h 20mn
    Bit rate mode                            : Constant
    Bit rate                                 : 448 Kbps
    Channel(s)                               : 6 channels
    Channel positions                        : Front: L C R, Side: L R, LFE
    Sampling rate                            : 48.0 KHz
    Bit depth                                : 16 bits
    Compression mode                         : Lossy
    Stream size                              : 257 MiB (16%)
    Language                                 : English
    Default                                  : No
    Forced                                   : No

    Text #1
    ID                                       : 4
    Format                                   : UTF-8
    Codec ID                                 : S_TEXT/UTF8
    Codec ID/Info                            : UTF-8 Plain Text
    Language                                 : English
    Default                                  : No
    Forced                                   : No

    Text #2
    ID                                       : 5
    Format                                   : UTF-8
    Codec ID                                 : S_TEXT/UTF8
    Codec ID/Info                            : UTF-8 Plain Text
    Language                                 : Dutch
    Default                                  : No
    Forced                                   : No

    Menu
    00:00:00.000                             : en:00:00:00.000
    00:09:59.974                             : en:00:09:59.974
    00:19:59.990                             : en:00:19:59.990
    00:29:59.965                             : en:00:29:59.965
    00:39:59.981                             : en:00:39:59.981
    00:49:59.997                             : en:00:49:59.997
    00:59:59.971                             : en:00:59:59.971
    01:09:59.987                             : en:01:09:59.987




    Скриншоты:
    скриншот   скриншот   скриншот   скриншот   скриншот  
    скриншот  


    pb.wtf



  • Скачать Охота за мертвецом через торрент http://i1.imageban.ru/out/2015/06/23/aeea0a054aec2880bad6367f3a9a9b05.jpg Скачать фильм Охота за мертвецом через торрент бесплантно в хорошем качестве Описание: Достаточно обеспеченный Барон Эмерсон, занимается своим любимым делом - охотой. Но в качестве жертвы он использует не ... 5.5 10 8
    Info! Золотая раздача, скачанное не засчитывается.
    Торрент: Зарегистрирован [2015-06-23 09:37] · скачан: 123 раз
    Статус: √ проверено
    Размер: 1.56 GB
    Как cкачать? Как скачать Охота за мертвецом через торрент | qTorrent

    28-11-2019 20:33  

    Отключить всю рекламу на сайте

      Дорогой пользователь! Огромная просьба, поблагодарите релизера, оцените раздачу и оставьте свои комментарий, если Вы скачали Охота за мертвецом через торрент бесплатно! Внесите свою лепту в развитие PiratBit!
      Комментировать посты могут только пользователи прошедшие не сложную регистрацию
      Показать сообщения:    

      Охота за мертвецом через торрент
      Скачать бесплатно Охота за мертвецом
      Охота за мертвецом скачать торрент
      Охота за мертвецом смотреть онлайн
      Cкачать фильм Охота за мертвецом бесплатно
      Охота за мертвецом скачать торрент в хорошем качестве
      Охота за мертвецом смотреть онлайн бесплатно в хорошем качестве


      Вы не можете начинать темы
      Вы не можете отвечать на сообщения
      Вы не можете редактировать свои сообщения
      Вы не можете удалять свои сообщения
      Вы не можете голосовать в опросах
      Вы не можете прикреплять файлы к сообщениям
      Вы можете скачивать файлы