2 сезон

iTunes

MVO

1

2 сезон

iTunes

iTunes

1 сезон

RePack

30

Новинка

ВАЖНО

ИГРА 18+

pack

RePack

MK11
pack

Легкие деньги

RePack

jed

RePack

fifa19

RePack

RDR2

RePack

NEED FOR SPEED™ PAYBACK

4 сезон

9 сезон

Бесстыжие 9 сезон

Все сериалы

все сериалы на PB.wtf

RePack

FAR CRY 5

Anonymous, добрый день, мы не успеваем собрать деньги на оплату серверов за декабрь и январь, помогите нам пожалуйста в это трудное время. В качестве благодарности мы отключим Вам всю рекламу на сайте (укажите свой ник в строку Ваше имя)!

×
  
Magnet ссылка

Анжелика, маркиза ангелов / Angélique, marquise des anges (Ариэль Зейтун) [2013 г., мелодрама, приключения, HDRip, Дубляж "iTunes"] pb.wtf

Анжелика, маркиза ангелов через торрент pb.wtf

Размер: 2.18 GB | Добавлен: 5 лет 7 мес. назад | Торрент скачан:276 раз
Скачать  

23-06-2015 19:17 Анжелика, маркиза ангелов Скачать торрент  

Анжелика маркиза ангелов / Angélique marquise des anges
Год выпуска: 2013
Страна: Франция / A.J.O.Z. Films, EuropaCorp, France 3 Cinéma
Жанр: мелодрама, приключения
Продолжительность: 01:52:35
Перевод: Дубляж (iTunes)

Режиссер: Ариэль Зейтун

IMDB 5.90 (636)


В ролях: Нора Арнезедер, Жерар Ланвен, Томер Сисле, Симон Абкарян, Давид Кросс, Маттьё Бужна, Мигель Херц-Кестранек, Юлиан Вайгенд, Райнер Фриб, Флоренс Косте, Наталья Фищук, Владимир Антоник, Илья Исаев, Василий Дахненко, Пётр Иващенко

Описание: Франция XVII века. Юную красавицу Анжелику выдают замуж за графа де Пейрака, обладающего огромным состоянием и слывущего «колдуном». Поначалу Анжелика ненавидит мужа, но постепенно начинает понимать, что за суровой внешностью скрывается обаятельным, добрый, чуткий и справедливый мужчина. Между супругами вспыхивает настоящая любовь, но идиллия оказывается недолгой.Короля Людовика XIV, проездом посетившего замок Де Пейрака, начинает терзать зависть к семейному счастью и богатству своего подданного. Де Пейрак заточен в Бастилию и ждет казни. Но Анжелика готова биться за свою любовь до последнего вздоха. На помощь энергичной и независимой красавице приходит давно влюбленный в нее Николя — предводитель парижских разбойников.

Качество: HDRip
Формат: AVI
Видео кодек: XviD
Аудио кодек: AC3
Видео: 720x304 (2.37:1), 24.000 fps, XviD build 50 ~2378 kbps avg, 0.45 bit/pixel
Аудио: 48 kHz, AC3 Dolby Digital, 3/2 (L,C,R,l,r) + LFE ch, ~384 kbps

Общее
Полное имя : F:\кино\Анжелика, маркиза ангелов.2013.HDRip.avi
Формат : AVI
Формат/Информация : Audio Video Interleave
Профиль формата : OpenDML
Размер файла : 2,18 Гбайт
Продолжительность : 1 ч. 52 м.
Общий поток : 2769 Кбит/сек
Программа кодирования : VirtualDubMod 1.5.10.3 | www.virtualdub-fr.org || (build 2550/release)
Библиотека кодирования : VirtualDubMod build 2550/release

Видео
Идентификатор : 0
Формат : MPEG-4 Visual
Профиль формата : Advanced Simple@L5
Параметр BVOP формата : 2
Параметр QPel формата : Нет
Параметр GMC формата : Без точки перехода
Параметр матрицы формата : Default (H.263)
Идентификатор кодека : XVID
Идентификатор кодека/Подсказка : XviD
Продолжительность : 1 ч. 52 м.
Битрейт : 2373 Кбит/сек
Ширина : 720 пикселей
Высота : 304 пикселя
Соотношение сторон : 2,35:1
Частота кадров : 24,000 кадра/сек
Цветовое пространство : YUV
Субдискретизация насыщенности : 4:2:0
Битовая глубина : 8 бит
Тип развёртки : Прогрессивная
Метод сжатия : С потерями
Бит/(Пиксели*Кадры) : 0.452
Размер потока : 1,87 Гбайт (86%)
Библиотека кодирования : XviD 1.2.1 (UTC 2008-12-04)

Аудио
Идентификатор : 1
Формат : AC-3
Формат/Информация : Audio Coding 3
Расширение режима : CM (complete main)
Параметр Endianness формата : Big
Идентификатор кодека : 2000
Продолжительность : 1 ч. 52 м.
Вид битрейта : Постоянный
Битрейт : 384 Кбит/сек
Каналы : 6 каналов
Расположение каналов : Front: L C R, Side: L R, LFE
Частота : 48,0 КГц
Метод сжатия : С потерями
Размер потока : 309 Мбайт (14%)
Выравнивание : Разделение по промежуткам
Продолжительность промежутка : 42 мс. (1,00 видеокадр)
Время предзагрузки промежутка : 500 мс.

pb.wtf



Скачать Анжелика, маркиза ангелов через торрент https://pic1.kartinco.top/images/10/pdjed.jpg Скачать фильм Анжелика, маркиза ангелов через торрент бесплантно в хорошем качестве Описание: Франция XVII века. Юную красавицу Анжелику выдают замуж за графа де Пейрака, обладающего огромным состоянием и слывущего ... 9.5 10 10
Торрент: Зарегистрирован [2015-06-23 19:17] · скачан: 276 раз
Статус: √ проверено
Размер: 2.18 GB
Как cкачать? Как скачать Анжелика, маркиза ангелов через торрент | UTorrent

% Раздел Тема Автор DL S | L
Фильмы 2013 [DVDrip, WEB-DLRip, HDrip] [ 1.46 GB ] Анжелика маркиза ангелов / Angélique marquise des anges [2013 DVDRip [ - ] Ворон Скачать
1 | 0
Фильмы (DVD фильмы) [ 6.46 GB ] Анжелика маркиза ангелов / Angélique marquise des anges [2013 DVD9] R5 voovaz Скачать
1 | 0


Последний раз редактировалось: coc900 (2015-06-23 19:34), всего редактировалось 1 раз

28-11-2019 20:33  

Отключить всю рекламу на сайте

23-06-2015 19:29 Анжелика, маркиза ангелов Скачать торрент  

пора продолжению появитсяpb.wtf



25-06-2015 16:59 Анжелика, маркиза ангелов Скачать торрент  

Не слышно когда ждать второй части?pb.wtf



    Дорогой пользователь! Огромная просьба, поблагодарите релизера, оцените раздачу и оставьте свои комментарий, если Вы скачали Анжелика, маркиза ангелов через торрент бесплатно! Внесите свою лепту в развитие PiratBit!
    Комментировать посты могут только пользователи прошедшие не сложную регистрацию
    Показать сообщения:    

    Анжелика, маркиза ангелов через торрент
    Скачать бесплатно Анжелика, маркиза ангелов
    Анжелика, маркиза ангелов скачать торрент
    Анжелика, маркиза ангелов смотреть онлайн
    Cкачать фильм Анжелика, маркиза ангелов бесплатно
    Анжелика, маркиза ангелов скачать торрент в хорошем качестве
    Анжелика, маркиза ангелов смотреть онлайн бесплатно в хорошем качестве


    Вы не можете начинать темы
    Вы не можете отвечать на сообщения
    Вы не можете редактировать свои сообщения
    Вы не можете удалять свои сообщения
    Вы не можете голосовать в опросах
    Вы не можете прикреплять файлы к сообщениям
    Вы можете скачивать файлы