Anonymous, добрый вечер, присоединяйтесь к нам в Telegram!, здесь всегда актуальный адрес сайта, оперативная поддержка и многое другое!

>

5.5

iTunes

7.4

iTunes

7.9

iTunes

1

7.7

1 сезон

6.8

iTunes

7.3

1 сезон

13

6.7

1 сезон

8.3

RePack

30

ULTIMATE

pack

9.9

Лицензия

ВАЖНО

ИГРА 18+

pack

7.3

RePack

MK11

7.7

RePack

jed

7.8

RePack

fifa19

8.5

RePack

RDR2

RePack

NEED FOR SPEED™ PAYBACK

4 сезон

9 сезон

Бесстыжие 9 сезон

Все сериалы

все сериалы на PB.wtf

RePack

FAR CRY 5

Anonymous, добрый вечер, мы катастрофически не успеваем собрать деньги на оплату серверов, помогите нам пожалуйста 5,10,15р., для нас важна любая помощь . В качестве благодарности мы отключим Вам всю рекламу на сайте (укажите свой ник в строку Ваше имя)!

×
  
Magnet ссылка

Первый мститель: Дилогия / Captain America: Dilogy (Джо Джонстон, Энтони Руссо, Джо Руссо) [2011, 2014, США, Фантастика, боевик, приключения, BDRip 720p,DUB] 60fps от R.G. HD-Films pb.wtf

Первый мститель: Дилогия через торрент pb.wtf

Качают: 1 [ 0 KB/s ]
Размер: 9.97 GB | Добавлен: 6 лет 4 мес. назад | Торрент скачан:249 раз
Смотреть онлайн Первый мститель: Дилогия | Скачать    Ребята, помогите собрать деньги на оплату серверов!!!

24-06-2015 12:26 Первый мститель: Дилогия Скачать торрент  

Первый мститель: Дилогия / Captain America: Dilogy
Первый мститель / Captain America: The First Avenger
Год выпуска: 2011
Страна: США
Жанр: фантастика, боевик, приключения

Продолжительность: 02:04:08
Перевод: Дубляж
Субтитры: русские (Forced), русские (Full), украинские (Full)

Режиссер: Джо Джонстон
В ролях: Крис Эванс (Captain America / Steve Rogers), Хейли Этвелл (Peggy Carter), Томми Ли Джонс (Colonel Chester Phillips), Хьюго Уивинг (Johann Schmidt / Red Skull), Доминик Купер (Howard Stark), Нил МакДонаф (Timothy «Dum Dum» Dugan), Дерек Люк (Gabe Jones), Стэнли Туччи (Dr. Abraham Erskine), Себастьян Стэн (James Buchanan «Bucky» Barnes), Тоби Джонс (Dr. Arnim Zola), Ричард Армитедж (Heinz Kruger), Сэмюэл Л. Джексон (Nick Fury)
Описание:
Стив Роджерс добровольно соглашается принять участие в эксперименте, который превратит его в суперсолдата, известного как Первый мститель. Роджерс вступает в вооруженные силы США вместе с Баки Барнсом и Пегги Картер, чтобы бороться с враждебной организацией ГИДРА, которой управляет безжалостный Красный Череп.
Рейтинг:

Качество: BDRip 720p / 60fps
Формат: MKV
Видео кодек: AVC
Аудио кодек:AC3
Видео: AVC, 1280x544 (2.35:1), 4995 kbps, 60 fps, 0,120 bpp
Аудио: русский / AC3 / 5.1 / 48 kHz / 384 kbps / 16 bit ||
Навигация по главам: есть
Релиз:
x264 [info]: frame I:3195 Avg QP:12.59 size:102682
x264 [info]: frame P:111589 Avg QP:14.75 size: 24375
x264 [info]: frame B:331864 Avg QP:18.74 size: 4819
x264 [info]: consecutive B-frames: 2.6% 3.5% 13.2% 15.7% 65.0%


General
Unique ID : 223508565958928170917837375629525979243 (0xA8262F1AAC12FE6BA402D9BA4CEB106B)
Complete name : E:\Captain America Dilogia\Captain.America_The.First.Avenger.(2011).BDRip.720p.(60 Fps).mkv
Format : Matroska
Format version : Version 4 / Version 2
File size : 4.66 GiB
Duration : 2h 4mn
Overall bit rate : 5 379 Kbps
Movie name : Первый мститель / Captain America: The First Avenger (2011) BDRip 720p от R.G. HD-Films | 60 fps
Encoded date : UTC 2015-06-24 09:31:19
Writing application : mkvmerge v6.2.0 ('Promised Land') built on Apr 28 2013 12:22:01
Writing library : libebml v1.3.0 + libmatroska v1.4.0

Video
ID : 1
Format : AVC
Format/Info : Advanced Video Codec
Format profile : High@L4.1
Format settings, CABAC : Yes
Format settings, ReFrames : 4 frames
Codec ID : V_MPEG4/ISO/AVC
Duration : 2h 4mn
Bit rate : 4 995 Kbps
Width : 1 280 pixels
Height : 544 pixels
Display aspect ratio : 2.35:1
Frame rate : 60.000 fps
Color space : YUV
Chroma subsampling : 4:2:0
Bit depth : 8 bits
Scan type : Progressive
Bits/(Pixel*Frame) : 0.120
Stream size : 4.24 GiB (91%)
Title : Captain America: The First Avenger (2011) BDRip 720p (60 Fps).mkv
Writing library : x264 core 130 r2273 b3065e6
Encoding settings : cabac=1 / ref=4 / deblock=1:0:0 / analyse=0x3:0x113 / me=umh / subme=9 / psy=1 / psy_rd=1.00:0.00 / mixed_ref=1 / me_range=24 / chroma_me=1 / trellis=2 / 8x8dct=1 / cqm=0 / deadzone=21,11 / fast_pskip=1 / chroma_qp_offset=-2 / threads=10 / lookahead_threads=1 / sliced_threads=0 / nr=0 / decimate=1 / interlaced=0 / bluray_compat=0 / constrained_intra=0 / bframes=4 / b_pyramid=2 / b_adapt=2 / b_bias=0 / direct=3 / weightb=1 / open_gop=0 / weightp=2 / keyint=250 / keyint_min=25 / scenecut=40 / intra_refresh=0 / rc_lookahead=40 / rc=2pass / mbtree=1 / bitrate=4995 / ratetol=1.0 / qcomp=0.60 / qpmin=0 / qpmax=69 / qpstep=4 / cplxblur=20.0 / qblur=0.5 / ip_ratio=1.40 / aq=1:1.00
Language : English
Default : Yes
Forced : No

Audio
ID : 2
Format : AC-3
Format/Info : Audio Coding 3
Mode extension : CM (complete main)
Codec ID : A_AC3
Duration : 2h 4mn
Bit rate mode : Constant
Bit rate : 384 Kbps
Channel(s) : 6 channels
Channel positions : Front: L C R, Side: L R, LFE
Sampling rate : 48.0 KHz
Bit depth : 16 bits
Compression mode : Lossy
Stream size : 341 MiB (7%)
Title : AC3 - Дубляж (Blu-ray CEE)
Language : Russian
Default : Yes
Forced : No

Text #1
ID : 3
Format : UTF-8
Codec ID : S_TEXT/UTF8
Codec ID/Info : UTF-8 Plain Text
Title : Forced
Language : Russian
Default : No
Forced : No

Text #2
ID : 4
Format : UTF-8
Codec ID : S_TEXT/UTF8
Codec ID/Info : UTF-8 Plain Text
Title : Full
Language : Russian
Default : No
Forced : No

Text #3
ID : 5
Format : UTF-8
Codec ID : S_TEXT/UTF8
Codec ID/Info : UTF-8 Plain Text
Title : Full
Language : Ukrainian
Default : No
Forced : No

Menu
00:00:00.000 : en:Chapter 01
00:08:12.158 : en:Chapter 02
00:14:56.813 : en:Chapter 03
00:24:21.543 : en:Chapter 04
00:30:39.129 : en:Chapter 05
00:38:39.859 : en:Chapter 06
00:45:52.166 : en:Chapter 07
00:51:58.157 : en:Chapter 08
00:57:55.639 : en:Chapter 09
01:03:59.294 : en:Chapter 10
01:12:22.588 : en:Chapter 11
01:19:10.663 : en:Chapter 12
01:28:27.052 : en:Chapter 13
01:33:53.002 : en:Chapter 14
01:42:20.343 : en:Chapter 15
01:50:45.055 : en:Chapter 16
01:53:46.319 : en:Chapter 17
скриншот   скриншот   скриншот   скриншот   скриншот   скриншот  Просьба к переливающим на другие сайты, в оформлении указывайте пожалуйста авторство рипа slaventi-69
Первый мститель: Другая война / Captain America: The Winter Soldier
Год выпуска: 2014
Страна: США
Жанр: фантастика, боевик, приключения

Продолжительность: 02:15:48
Перевод: Дубляж
Субтитры: русские (For), русские (Full), украинские (For)

Режиссер: Энтони Руссо , Джо Руссо
В ролях: Крис Эванс (Steve Rogers / Captain America), Скарлетт Йоханссон (Natasha Romanoff / Black Widow), Энтони Маки (Sam Wilson / Falcon), Себастьян Стэн (Bucky Barnes / Winter Soldier), Сэмюэл Л. Джексон (Nick Fury), Роберт Редфорд (Alexander Pierce), Фрэнк Грилло (Brock Rumlow), Коби Смолдерс (Maria Hill), Эмили ВанКэмп (Kate / Agent 13), Максимилиано Эрнандес (Jasper Sitwell), Хейли Этвелл (Peggy Carter), Тоби Джонс (Dr. Arnim Zola)
Описание:
После беспрецедентных событий, впервые собравших вместе команду Мстителей, Стив Роджерс, известный также как Капитан Америка, оседает в Вашингтоне и пытается приспособиться к жизни в современном мире. Но покой этому герою только снится - пытаясь помочь коллеге из агентства Щ. И. Т, Стив оказывается в центре событий, грозящих катастрофой мирового масштаба. Для того, чтобы разоблачить злодейский заговор, Капитан Америка объединяется с Черной вдовой. К ним также присоединяется новый соратник, известный как Сокол, однако никто из них даже не подозревает, на что способен новый враг.
Рейтинг:

Качество: BDRip 720p / 60fps
Формат: MKV
Видео кодек: AVC
Аудио кодек:AC3
Видео: AVC, 1280x536 (2.40:1), 5102 kbps, 60 fps, 0,124 bpp
Аудио: русский / AC3 / 5.1 / 48 kHz / 384 kbps / 16 bit ||
Навигация по главам: есть
Релиз:
x264 [info]: frame I:3640 Avg QP:15.44 size:105931
x264 [info]: frame P:126057 Avg QP:18.08 size: 23519
x264 [info]: frame B:359061 Avg QP:21.61 size: 5447
x264 [info]: consecutive B-frames: 3.0% 4.8% 13.6% 17.2% 61.4%


General
Unique ID : 251576690434098741808875786578157139943 (0xBD43E87BF93D370F842AF6CFDCDC77E7)
Complete name : E:\Captain America Dilogia\Captain.America_The.Winter.Soldier.(2014).BDRip.720p.(60 Fps).mkv
Format : Matroska
Format version : Version 4 / Version 2
File size : 5.31 GiB
Duration : 2h 15mn
Overall bit rate : 5 598 Kbps
Movie name : Первый мститель: Другая война / Captain America: The Winter Soldier (2014) BDRip 720p от R.G. HD-Films | 60 fps
Encoded date : UTC 2015-06-24 09:46:39
Writing application : mkvmerge v6.2.0 ('Promised Land') built on Apr 28 2013 12:22:01
Writing library : libebml v1.3.0 + libmatroska v1.4.0

Video
ID : 1
Format : AVC
Format/Info : Advanced Video Codec
Format profile : High@L4.1
Format settings, CABAC : Yes
Format settings, ReFrames : 4 frames
Codec ID : V_MPEG4/ISO/AVC
Duration : 2h 15mn
Bit rate : 5 102 Kbps
Width : 1 280 pixels
Height : 536 pixels
Display aspect ratio : 2.40:1
Frame rate : 60.000 fps
Color space : YUV
Chroma subsampling : 4:2:0
Bit depth : 8 bits
Scan type : Progressive
Bits/(Pixel*Frame) : 0.124
Stream size : 4.84 GiB (91%)
Title : Captain America: The Winter Soldier (2014) BDRip 720p (60 Fps).mkv
Writing library : x264 core 130 r2273 b3065e6
Encoding settings : cabac=1 / ref=4 / deblock=1:0:0 / analyse=0x3:0x113 / me=umh / subme=9 / psy=1 / psy_rd=1.00:0.00 / mixed_ref=1 / me_range=24 / chroma_me=1 / trellis=2 / 8x8dct=1 / cqm=0 / deadzone=21,11 / fast_pskip=1 / chroma_qp_offset=-2 / threads=12 / lookahead_threads=1 / sliced_threads=0 / nr=0 / decimate=1 / interlaced=0 / bluray_compat=0 / constrained_intra=0 / bframes=4 / b_pyramid=2 / b_adapt=2 / b_bias=0 / direct=1 / weightb=1 / open_gop=0 / weightp=2 / keyint=250 / keyint_min=25 / scenecut=40 / intra_refresh=0 / rc_lookahead=40 / rc=crf / mbtree=1 / crf=16.0 / qcomp=0.60 / qpmin=0 / qpmax=69 / qpstep=4 / ip_ratio=1.40 / aq=1:1.00
Language : English
Default : Yes
Forced : No

Audio
ID : 2
Format : AC-3
Format/Info : Audio Coding 3
Mode extension : CM (complete main)
Codec ID : A_AC3
Duration : 2h 15mn
Bit rate mode : Constant
Bit rate : 384 Kbps
Channel(s) : 6 channels
Channel positions : Front: L C R, Side: L R, LFE
Sampling rate : 48.0 KHz
Bit depth : 16 bits
Compression mode : Lossy
Stream size : 373 MiB (7%)
Title : Dub
Language : Russian
Default : Yes
Forced : No

Text #1
ID : 3
Format : UTF-8
Codec ID : S_TEXT/UTF8
Codec ID/Info : UTF-8 Plain Text
Title : For
Language : Russian
Default : Yes
Forced : No

Text #2
ID : 4
Format : UTF-8
Codec ID : S_TEXT/UTF8
Codec ID/Info : UTF-8 Plain Text
Title : Full
Language : Russian
Default : No
Forced : No

Text #3
ID : 5
Format : UTF-8
Codec ID : S_TEXT/UTF8
Codec ID/Info : UTF-8 Plain Text
Title : For
Language : Ukrainian
Default : No
Forced : No

Menu
00:00:00.000 : en:00:00:00.000
00:03:28.667 : en:00:03:28.667
00:13:31.728 : en:00:13:31.728
00:17:57.868 : en:00:17:57.868
00:22:25.302 : en:00:22:25.302
00:33:20.415 : en:00:33:20.415
00:41:27.276 : en:00:41:27.276
00:51:37.303 : en:00:51:37.303
00:58:23.959 : en:00:58:23.959
01:07:40.348 : en:01:07:40.348
01:16:22.203 : en:01:16:22.203
01:24:43.078 : en:01:24:43.078
01:32:17.699 : en:01:32:17.699
01:37:06.612 : en:01:37:06.612
01:49:13.088 : en:01:49:13.088
01:55:03.730 : en:01:55:03.730
02:01:11.055 : en:02:01:11.055
02:06:22.241 : en:02:06:22.241
скриншот   скриншот   скриншот   скриншот   скриншот   скриншот  Просьба к переливающим на другие сайты, в оформлении указывайте пожалуйста авторство рипа slaventi-69
pb.wtf



Скачать Первый мститель: Дилогия через торрент http://i69.fastpic.ru/big/2015/0624/20/2596672377fa42fbe121623104201720.gif Скачать, смотреть онлайн Первый мститель: Дилогия бесплантно в хорошем качестве Описание: Стив Роджерс добровольно соглашается принять участие в эксперименте, который превратит его в суперсолдата, известного как Первый ... 9.6 10 26
Info! Золотая раздача, скачанное не засчитывается.
Торрент: Зарегистрирован [2015-06-24 12:33] · скачан: 249 раз
Статус: √ проверено
Размер: 9.97 GB
Как cкачать? Как скачать Первый мститель: Дилогия через торрент | UTorrent

% Раздел Тема Автор DL S | L
Сборники и Сиквелы (48-60 fps) [ 7.91 GB ] Первый мститель : Дилогия / Captain America: Dilogy [2011-2014 BDRip-AVC 60fps ] от R.G. HD-Films Tiberiumsun69 Скачать
1 | 0

28-11-2019 20:33  

Отключить всю рекламу на сайте

05-06-2018 13:25 Первый мститель: Дилогия Скачать торрент  

спасибо в 60 фпс фильмы смотрится по другомуpb.wtf



    Дорогой пользователь! Огромная просьба, поблагодарите релизера, оцените раздачу и оставьте свои комментарий, если Вы скачали Первый мститель: Дилогия через торрент бесплатно!
    Комментировать посты могут только пользователи прошедшие не сложную регистрацию
    Показать сообщения:    

    Первый мститель: Дилогия через торрент
    Скачать бесплатно Первый мститель: Дилогия
    Первый мститель: Дилогия скачать торрент
    Первый мститель: Дилогия смотреть онлайн
    Cкачать фильм Первый мститель: Дилогия бесплатно
    Первый мститель: Дилогия скачать торрент в хорошем качестве
    Первый мститель: Дилогия смотреть онлайн бесплатно в хорошем качестве


    Вы не можете начинать темы
    Вы не можете отвечать на сообщения
    Вы не можете редактировать свои сообщения
    Вы не можете удалять свои сообщения
    Вы не можете голосовать в опросах
    Вы не можете прикреплять файлы к сообщениям
    Вы можете скачивать файлы