Ссылка на приватное зеркало нашего сайта всего за 1$. Внимание количество ограничено!!!

2 сезон

iTunes

1 сезон

1

iTunes

iTunes

iTunes

1 сезон

RePack

30

ИГРА 18+

pack

ВАЖНО

!!Акция!!

Alien_RageХит недели

RePack

MK11
pack

Забери бонус

RePack

jed

!!Акция!!

Alien_Rage

RePack

fifa19

RePack

Assassins Creed: Odyssey

RePack

NEED FOR SPEED™ PAYBACK

4 сезон

9 сезон

Бесстыжие 9 сезон

Все сериалы

все сериалы на PB.wtf

RePack

FAR CRY 5
  

Красавица и чудовище / La belle et la bête (Кристоф Ганс / Christophe Gans) [2014, Франция, Германия, США, фэнтези, мелодрама, BDRip-AVC 60fps, Дубляж] от R.G. HD-Films pb.wtf

Красавица и чудовище через торрент pb.wtf

Раздают: 1 [ 0 KB/s ]
Размер: 3.52 GB | Добавлен: 5 лет 3 мес. назад | Торрент скачан:265 раз
Скачать  

24-06-2015 13:41 Красавица и чудовище Скачать торрент  


Название: Красавица и чудовище
Оригинальное название: La belle et la bête
Год выпуска: 2014
Страна: Франция, Германия, США
Жанр: фэнтези, мелодрама
Продолжительность: 01:53:05
Перевод: Дубляж
Субтитры: русские (Полные), английские (Полные)
Режиссер: Кристоф Ганс / Christophe Gans
В ролях: Леа Сейду (Belle), Венсан Кассель (La Bête / Le Prince), Андре Дюссолье (Le marchand), Эдуардо Норьега (Perducas), Мириам Шарленс (Astrid), Одри Лами (Anne), Сара Жиродо (Clotilde), Жонатан Демурже (Jean-Baptiste), Николя Гоб (Maxime), Лука Мельява (Tristan), Ивонн Каттерфельд (La Princesse), Деян Бучин (Louis)
Описание:
Дочь купца, смелая и отважная Белль, отправляется в замок чудовища, чтобы спасти жизнь своего отца. Очутившись в замке, Белль попадает в потусторонний мир волшебства, фантастических приключений и загадочной меланхолии.
Оказывается, что наводившее ужас на всю округу чудовище очень несчастно, а в его груди бьется доброе сердце. Белль все больше проникается симпатией к своему ужасному господину.
Благодаря пылкому сердцу и храбрости, она преодолевает все опасности, чтобы снять зловещие чары с чудовища. Но это произойдет, только если его сможет полюбить прекрасная девушка.
Рейтинг
kinopoisk.ru: 6.450 (21 627)
imdb.com: 6.40 (8279)
Качество: BDRip-AVC 60fps
Формат: MKV
Видео кодек: AVC
Аудио кодек:AC3
Видео: AVC, 1024x432 (2.35:1), 4000 kbps, 59,997 fps, 0,151 bpp
Аудио: русский / AC3 / 5.1 / 48 kHz / 448 kbps / 16 bit |Дубляж IPTV|
Навигация по главам: есть

General
Unique ID : 211137350901534467122420431424599680068 (0x9ED7931C2162D49BB6B2A491F534E444)
Complete name : A:\Фильмы\BDRip-avc\Красавица и чудовище 2014 BDRip-AVC 60fps R.G. HD-Films.mkv
Format : Matroska
Format version : Version 4 / Version 2
File size : 3.52 GiB
Duration : 1h 53mn
Overall bit rate : 4 452 Kbps
Movie name : Tiberiumsun69
Encoded date : UTC 2015-06-24 12:03:18
Writing application : mkvmerge v7.9.0 ('Birds') 64bit
Writing library : libebml v1.3.1 + libmatroska v1.4.2
Attachment : Yes

Video
ID : 1
Format : AVC
Format/Info : Advanced Video Codec
Format profile : High@L4.1
Format settings, CABAC : Yes
Format settings, ReFrames : 4 frames
Codec ID : V_MPEG4/ISO/AVC
Duration : 1h 53mn
Bit rate : 4 000 Kbps
Width : 1 024 pixels
Height : 432 pixels
Display aspect ratio : 2.35:1
Frame rate : 59.997 fps
Color space : YUV
Chroma subsampling : 4:2:0
Bit depth : 8 bits
Scan type : Progressive
Bits/(Pixel*Frame) : 0.151
Stream size : 3.09 GiB (88%)
Title : Tiberiumsun69
Writing library : x264 core 146 r2538 121396c
Encoding settings : cabac=1 / ref=4 / deblock=1:0:0 / analyse=0x3:0x113 / me=umh / subme=9 / psy=1 / psy_rd=1.00:0.10 / mixed_ref=1 / me_range=32 / chroma_me=1 / trellis=2 / 8x8dct=1 / cqm=0 / deadzone=21,11 / fast_pskip=0 / chroma_qp_offset=-3 / threads=12 / lookahead_threads=3 / sliced_threads=0 / nr=0 / decimate=1 / interlaced=0 / bluray_compat=0 / constrained_intra=0 / bframes=16 / b_pyramid=2 / b_adapt=2 / b_bias=0 / direct=3 / weightb=1 / open_gop=0 / weightp=2 / keyint=600 / keyint_min=59 / scenecut=40 / intra_refresh=0 / rc_lookahead=60 / rc=2pass / mbtree=1 / bitrate=4000 / ratetol=1.0 / qcomp=0.60 / qpmin=0 / qpmax=69 / qpstep=4 / cplxblur=20.0 / qblur=0.5 / vbv_maxrate=50000 / vbv_bufsize=62500 / nal_hrd=none / filler=0 / ip_ratio=1.40 / aq=1:1.00
Language : English
Default : Yes
Forced : No

Audio
ID : 2
Format : AC-3
Format/Info : Audio Coding 3
Mode extension : CM (complete main)
Codec ID : A_AC3
Duration : 1h 53mn
Bit rate mode : Constant
Bit rate : 448 Kbps
Channel(s) : 6 channels
Channel positions : Front: L C R, Side: L R, LFE
Sampling rate : 48.0 KHz
Bit depth : 16 bits
Compression mode : Lossy
Delay relative to video : 42ms
Stream size : 362 MiB (10%)
Title : Дублированный IPTV
Language : Russian
Default : Yes
Forced : No

Text #1
ID : 3
Format : UTF-8
Codec ID : S_TEXT/UTF8
Codec ID/Info : UTF-8 Plain Text
Title : Полные
Language : Russian
Default : No
Forced : No

Text #2
ID : 4
Format : UTF-8
Codec ID : S_TEXT/UTF8
Codec ID/Info : UTF-8 Plain Text
Title : Полные
Language : English
Default : No
Forced : No

Menu
00:00:00.000 : en: CHAPTER01
00:03:19.083 : en: CHAPTER02
00:06:48.417 : en: CHAPTER03
00:11:21.375 : en: CHAPTER04
00:17:08.583 : en: CHAPTER05
00:28:11.333 : en: CHAPTER06
00:31:36.125 : en: CHAPTER07
00:37:27.458 : en: CHAPTER08
00:44:22.750 : en: CHAPTER09
00:51:00.500 : en: CHAPTER10
00:53:44.417 : en: CHAPTER11
01:04:05.167 : en: CHAPTER12
01:10:16.000 : en: CHAPTER13
01:16:07.708 : en: CHAPTER14
01:22:10.500 : en: CHAPTER15
01:26:00.125 : en: CHAPTER16
01:28:07.667 : en: CHAPTER17
01:33:15.375 : en: CHAPTER18
01:41:54.792 : en: CHAPTER19
01:45:26.833 : en: CHAPTER20
Просьба к переливающим на другие сайты, в оформлении указывайте пожалуйста авторство группы R.G. HD-Films
Поблагодарить релизера! Авторская группа в ВК
pb.wtf



Скачать Красавица и чудовище через торрент http://i70.fastpic.ru/big/2015/0624/54/3ffb93d8fdcfc5f2cbc7c045da0ee854.png Скачать фильм Красавица и чудовище через торрент бесплантно в хорошем качестве Описание: Дочь купца, смелая и отважная Белль, отправляется в замок чудовища, чтобы спасти жизнь своего отца. Очутившись в замке, Белль ... 10 10 10
Info! Золотая раздача, скачанное не засчитывается.
Торрент: Зарегистрирован [2015-06-24 13:41] · скачан: 265 раз
Статус: √ проверено
Размер: 3.52 GB
Как cкачать? Как скачать Красавица и чудовище через торрент | qTorrent



Последний раз редактировалось: Tiberiumsun69 (2018-02-09 08:08), всего редактировалось 1 раз

28-11-2019 20:33  

Отключить всю рекламу на сайте

24-06-2015 15:43 Красавица и чудовище Скачать торрент  

Спасибо.pb.wtf



24-06-2015 16:15 Красавица и чудовище Скачать торрент  

все красиво-спасибоpb.wtf



    Дорогой пользователь! Огромная просьба, поблагодарите релизера, оцените раздачу и оставьте свои комментарий, если Вы скачали Красавица и чудовище через торрент бесплатно! Внесите свою лепту в развитие PiratBit!
    Комментировать посты могут только пользователи прошедшие не сложную регистрацию
    Показать сообщения:    

    Красавица и чудовище через торрент
    Скачать бесплатно Красавица и чудовище
    Красавица и чудовище скачать торрент
    Красавица и чудовище смотреть онлайн
    Cкачать фильм Красавица и чудовище бесплатно
    Красавица и чудовище скачать торрент в хорошем качестве
    Красавица и чудовище смотреть онлайн бесплатно в хорошем качестве


    Вы не можете начинать темы
    Вы не можете отвечать на сообщения
    Вы не можете редактировать свои сообщения
    Вы не можете удалять свои сообщения
    Вы не можете голосовать в опросах
    Вы не можете прикреплять файлы к сообщениям
    Вы можете скачивать файлы