Всегда рабочее зеркало просто перед .vidak.icu напиши любое слово или цифру, Пример http://wz0.vidak.icu

>

7.4

iTunes

7.4

2 сезон

9.4

1 сезон

1

7.4

2 сезон

7.2

iTunes

6.0

MVO

13

6.1

iTunes

8.3

Пиратка

30

ULTIMATE

pack

9.9

Лицензия

ВАЖНО

ИГРА 18+

pack

7.3

RePack

MK11

7.7

RePack

jed

7.8

RePack

fifa19

8.5

RePack

RDR2

RePack

NEED FOR SPEED™ PAYBACK

1 сезон

9 сезон

Бесстыжие 9 сезон

Все сериалы

все сериалы на PB.wtf

RePack

FAR CRY 5

Anonymous, доброй ночи, мы катастрофически не успеваем собрать деньги на оплату серверов, помогите нам пожалуйста 5,10,15р., для нас важна любая помощь . В качестве благодарности мы отключим Вам всю рекламу на сайте (укажите свой ник в строку Ваше имя)!

×
  
Magnet ссылка

Ночной беглец (Хауме Кольет-Серра) [2015, США, боевик, криминал, драма, BDRip 720p,Авторский (одноголосый)] pb.wtf

Ночной беглец через торрент pb.wtf

Размер: 7.01 GB | Добавлен: 6 лет 6 мес. назад | Торрент скачан:33 раза
Смотреть онлайн Ночной беглец | Скачать    Ребята, помогите собрать деньги на оплату серверов!!!

25-06-2015 06:39 Ночной беглец Скачать торрент  

Ночной беглец / Run All Night
«Одна ночь, чтобы свести счёты»


Год выпуска: 2015
Страна: США
Жанр: боевик, криминал, драма
Продолжительность: 01:54:21
Перевод: Авторский (одноголосый)
Субтитры: английские, английские (SDH)
Режиссер: Хауме Кольет-Серра
В ролях: Лиам Нисон , Юэль Киннаман , Коммон , Эд Харрис , Бойд Холбрук , Брюс МакГилл , Дженезис Родригез , Винсент Д’Онофрио , Луис Смит , Бо Напп , Патриция Кэлембер , Дэниэл Стюарт-Шерман
Описание:
Фильм расскажет историю киллера, вступившего в конфликт с бывшим боссом и в итоге вынужденного пуститься в бега, чтобы защитить свою семью от преследования мафией и властями.

R - Лицам до 17 лет обязательно присутствие взрослого
Качество: BDRip 720p
Контейнер (Расширение): MKV
Видео кодек: AVC
Аудио кодек: AC3
Видео: 1280x534, 7500 Кбит/сек, 23,976 кадр/сек, 0,458 Бит/[Пиксели*Кадры]
Аудио №1: русский / AC3 / 5.1 / 48 kHz / 640 kbps / 16 bit |Авторский, Дмитрий Есарев|
Аудио №2: английский / AC3 / 5.1 / 48 kHz / 640 kbps / 16 bit
Навигация по главам(Чаптеры): есть
Видеоряд AdzsC @ WiKiРелиз от: Сообщество:
  • Практически все сцены с участием Ника Нолти были вырезаны из финальной версии фильма, и в итоге его эпизодическое появление даже не упомянули в титрах.
  • В реальной жизни двоих сыновей Лиама Нисона зовут так же, как и двух мальчиков в фильме - Майкл и Даниэль.
  • В сцене уличной погони Джимми пробегает мимо афиши фильма «Безумный Макс: Дорога ярости» (2015).
  • На газете The New York Post видна дата: четверг, 23 сентября 1996 года. На самом деле 23 сентября 1996 года было понедельником.
  • Рубашка Джима, во время разговора с сыном, то расстегивается, то застегивается.
  • Код:

    Format                                   : Matroska
    Format version                           : Version 2
    File size                                : 7.01 GiB
    Duration                                 : 1h 54mn
    Overall bit rate                         : 8 781 Kbps
    Movie name                               : Nochnoj beglec.(2015).BDRip.720p.[denis100]
    Encoded date                             : UTC 2015-06-24 08:04:23
    Writing application                      : mkvmerge v5.8.0 ('No Sleep / Pillow') built on Sep  2 2012 15:37:04
    Writing library                          : libebml v1.2.3 + libmatroska v1.3.0

    Video
    ID                                       : 1
    Format                                   : AVC
    Format/Info                              : Advanced Video Codec
    Format profile                           : High@L4.1
    Format settings, CABAC                   : Yes
    Format settings, ReFrames                : 12 frames
    Codec ID                                 : V_MPEG4/ISO/AVC
    Duration                                 : 1h 54mn
    Bit rate                                 : 7 500 Kbps
    Width                                    : 1 280 pixels
    Height                                   : 534 pixels
    Display aspect ratio                     : 2.40:1
    Frame rate                               : 23.976 fps
    Color space                              : YUV
    Chroma subsampling                       : 4:2:0
    Bit depth                                : 8 bits
    Scan type                                : Progressive
    Bits/(Pixel*Frame)                       : 0.458
    Stream size                              : 5.85 GiB (83%)
    Title                                    : Nochnoj beglec.(2015).BDRip.720p.[denis100]
    Writing library                          : x264 core 142 r2431+42 c69a006 tMod [8-bit@all X86_64]
    Encoding settings                        : cabac=1 / ref=12 / deblock=1:-2:-2 / analyse=0x3:0x133 / me=umh / subme=11 / psy=1 / fade_compensate=0.00 / psy_rd=1.05:0.15 / mixed_ref=1 / me_range=32 / chroma_me=1 / trellis=2 / 8x8dct=1 / cqm=0 / deadzone=21,11 / fast_pskip=0 / chroma_qp_offset=-3 / threads=12 / lookahead_threads=3 / sliced_threads=0 / nr=0 / decimate=0 / interlaced=0 / bluray_compat=0 / constrained_intra=0 / fgo=0 / bframes=10 / b_pyramid=2 / b_adapt=2 / b_bias=0 / direct=3 / weightb=1 / open_gop=0 / weightp=2 / keyint=250 / keyint_min=23 / scenecut=40 / intra_refresh=0 / rc=2pass / mbtree=0 / bitrate=7500 / ratetol=1.0 / qcomp=0.80 / qpmin=0:0:0 / qpmax=69:69:69 / qpstep=4 / cplxblur=20.0 / qblur=0.5 / ip_ratio=1.40 / pb_ratio=1.30 / aq=1:0.90 / aq-sensitivity=10.00 / aq-factor=1.00:1.00:1.00 / aq2=0 / aq3=0
    Language                                 : English
    Default                                  : Yes
    Forced                                   : No
    Matrix coefficients                      : BT.709-5, BT.1361, IEC 61966-2-4 709, SMPTE RP177

    Audio #1
    ID                                       : 2
    Format                                   : AC-3
    Format/Info                              : Audio Coding 3
    Mode extension                           : CM (complete main)
    Codec ID                                 : A_AC3
    Duration                                 : 1h 54mn
    Bit rate mode                            : Constant
    Bit rate                                 : 640 Kbps
    Channel(s)                               : 6 channels
    Channel positions                        : Front: L C R, Side: L R, LFE
    Sampling rate                            : 48.0 KHz
    Bit depth                                : 16 bits
    Compression mode                         : Lossy
    Stream size                              : 524 MiB (7%)
    Title                                    : Авторский, Дмитрий Есарев
    Language                                 : Russian
    Default                                  : Yes
    Forced                                   : No

    Audio #2
    ID                                       : 3
    Format                                   : AC-3
    Format/Info                              : Audio Coding 3
    Mode extension                           : CM (complete main)
    Codec ID                                 : A_AC3
    Duration                                 : 1h 54mn
    Bit rate mode                            : Constant
    Bit rate                                 : 640 Kbps
    Channel(s)                               : 6 channels
    Channel positions                        : Front: L C R, Side: L R, LFE
    Sampling rate                            : 48.0 KHz
    Bit depth                                : 16 bits
    Compression mode                         : Lossy
    Stream size                              : 524 MiB (7%)
    Language                                 : English
    Default                                  : No
    Forced                                   : No

    Text #1
    ID                                       : 4
    Format                                   : UTF-8
    Codec ID                                 : S_TEXT/UTF8
    Codec ID/Info                            : UTF-8 Plain Text
    Language                                 : English
    Default                                  : No
    Forced                                   : No

    Text #2
    ID                                       : 5
    Format                                   : UTF-8
    Codec ID                                 : S_TEXT/UTF8
    Codec ID/Info                            : UTF-8 Plain Text
    Title                                    : SDH
    Language                                 : English
    Default                                  : No
    Forced                                   : No

    Menu
    00:00:00.000                             : en:00:00:00.000
    00:09:02.792                             : en:00:09:02.792
    00:20:32.273                             : en:00:20:32.273
    00:29:24.346                             : en:00:29:24.346
    00:41:17.558                             : en:00:41:17.558
    00:50:29.818                             : en:00:50:29.818
    01:01:35.942                             : en:01:01:35.942
    01:10:56.794                             : en:01:10:56.794
    01:19:52.121                             : en:01:19:52.121
    01:34:14.440                             : en:01:34:14.440
    01:39:08.776                             : en:01:39:08.776
    01:48:38.387                             : en:01:48:38.387

    x264 [info]: frame I:1790 Avg QP:12.95 size:136356
    x264 [info]: frame P:40838 Avg QP:14.91 size: 66107
    x264 [info]: frame B:121885 Avg QP:17.54 size: 28616
    x264 [info]: consecutive B-frames: 4.4% 5.1% 12.5% 22.3% 15.6% 25.2% 6.0% 5.5% 2.1% 0.6% 0.7%
    pb.wtf



    Скачать Ночной беглец через торрент http://i72.fastpic.ru/big/2015/0625/e8/1aad670691149b0fcc8e45f7856b20e8.png Скачать, смотреть онлайн Ночной беглец бесплантно в хорошем качестве Описание:Фильм расскажет историю киллера, вступившего в конфликт с бывшим боссом и в итоге вынужденного пуститься в бега, чтобы защитить ... 10 10 2
    Info! Золотая раздача, скачанное не засчитывается.
    Торрент: Зарегистрирован [2015-06-25 06:39] · скачан: 33 раз
    Статус: √ проверено
    Размер: 7.01 GB
    Как cкачать? Как скачать Ночной беглец через торрент | UTorrent

    % Раздел Тема Автор DL S | L
    Ultra HD (UHD: 2K, 4K, 8K) — видео сверхвысокой чёткости [ 28.24 GB ] Ночной беглец / Run All Night [2015 UHD WEBRip 2160p] DUB + 3xAVO sheker187 Скачать
    1 | 0
    Фильмы [HD 720p, 1080p] (Хороший звук DUB, MVO) [ 9.2 GB ] Ночной беглец [2015 BDRip 1080p - / ] Ворон Скачать
    1 | 0
    Фильмы [HD 720p, 1080p] (Хороший звук DUB, MVO) [ 11.18 GB ] Ночной беглец / Night of the Running Man [1995 BDRip 1080p by msltel] MVO AVO msltel Скачать
    1 | 0
    Фильмы [HD 720p, 1080p] (Хороший звук DUB, MVO) [ 4.21 GB ] Ночной беглец / Night of the Running Man [1995 BDRip 720p by msltel] MVO AVO msltel Скачать
    1 | 0
    Фильмы с авторской озвучкой [ 1.46 GB ] Ночной беглец / Run All Night [2015 BDRip] AVO [А. Гаврилов] bober100 Скачать
    1 | 0
    Фильмы 2015 [DVDrip, WEB-DLRip, HDrip] [ 1.47 GB ] Ночной беглец [2015 BDRip] DUB Twi7ter Скачать
    1 | 0
    Фильмы 2015 [DVDrip, WEB-DLRip, HDrip] [ 2.17 GB ] Ночной беглец [2015 HDRip ""] coc900 Скачать
    1 | 0

    28-11-2019 20:33  

    Отключить всю рекламу на сайте

      Дорогой пользователь! Огромная просьба, поблагодарите релизера, оцените раздачу и оставьте свои комментарий, если Вы скачали Ночной беглец через торрент бесплатно!
      Комментировать посты могут только пользователи прошедшие не сложную регистрацию
      Показать сообщения:    

      Ночной беглец через торрент
      Скачать бесплатно Ночной беглец
      Ночной беглец скачать торрент
      Ночной беглец смотреть онлайн
      Cкачать фильм Ночной беглец бесплатно
      Ночной беглец скачать торрент в хорошем качестве
      Ночной беглец смотреть онлайн бесплатно в хорошем качестве


      Вы не можете начинать темы
      Вы не можете отвечать на сообщения
      Вы не можете редактировать свои сообщения
      Вы не можете удалять свои сообщения
      Вы не можете голосовать в опросах
      Вы не можете прикреплять файлы к сообщениям
      Вы можете скачивать файлы