Ссылка на приватное зеркало нашего сайта всего за 1$. Внимание количество ограничено!!!

2 сезон

iTunes

1 сезон

1

iTunes

iTunes

iTunes

1 сезон

RePack

30

ИГРА 18+

pack

ВАЖНО

!!Акция!!

Alien_RageХит недели

RePack

MK11
pack

Забери бонус

RePack

jed

!!Акция!!

Alien_Rage

RePack

fifa19

RePack

Assassins Creed: Odyssey

RePack

NEED FOR SPEED™ PAYBACK

4 сезон

9 сезон

Бесстыжие 9 сезон

Все сериалы

все сериалы на PB.wtf

RePack

FAR CRY 5
  

Список смертников / Kill List (Бен Уитли / Ben Wheatley) [2011, Великобритания, ужасы, триллер, BDRip 1080p] pb.wtf

Список смертников через торрент pb.wtf

Размер: 10.94 GB | Добавлен: 5 лет 3 мес. назад | Торрент скачан:104 раза
Скачать  

05-01-2012 08:42 Список смертников Скачать торрент  

Список смертников / Kill List Год выпуска: 2011
Страна: Великобритания
Жанр: ужасы, триллер
Продолжительность: 01:35:29
Перевод: Профессиональное (многоголосое) [Amedia]
Оригинальная аудиодорожка: английский
Режиссер: Бен Уитли / Ben Wheatley

В ролях: Нил Мэскелл, МайАнна Бёринг, Гарри Симпсон, Майкл Смайли, Эмма Фрайер, Струан Роджер, Эсме Фоли, Бен Кромптон, Джемма Лизе Тортон, Робин Хилл

Описание: Поиздержавшийся киллер-фрилансер Джей соглашается на очередное дело, чтобы заработать на новое джакузи. Простое, на первый взгляд, задание – убить трех человек по списку, не вызывает сначала никаких подозрений. Хотя то, что клиент попросил подписать контракт кровью, немного озадачило Джея. Это оказалось только первым странным эпизодом из длинной череды. То смертники из списка почему-то говорят убийце спасибо, перед тем как умереть. То вдруг на пути Джея возникает опасная сатанинская секта. Так обычная история про киллера превращается в готический кошмар.

Сэмпл


Тип релиза: BDRip 1080p
Контейнер: MKV
Видео кодек: AVC
Аудио кодек: DTS
Видео: 1920 x 816 (2.353) at 23.976 fps,AVC at 9059 Кбит/сек
Аудио: AC-3 at 192 Кбит/сек,2 канала, 48,0 КГц,[RUS]
Аудио 2: DTS at 755 Кбит/сек,6 каналов, 48,0 КГц,[ENG]
Субтитры: softsub (SRT)
IMDB рейтинг: 6.7/10 (1272 голосов)
Общее
Полное имя : F:\KILL-LIST.BDRip-AVC-1080p.mkv
Формат : Matroska
Версия формата : Version 2
Размер файла : 6,68 Гбайт
Продолжительность : 1 ч. 35 м.
Общий поток : 10,0 Мбит/сек
Дата кодирования : UTC 2012-01-04 09:36:41
Программа кодирования : mkvmerge v5.0.1 ('Es ist Sommer') built on Oct 9 2011 11:55:43
Библиотека кодирования : libebml v1.2.2 + libmatroska v1.3.0
Видео
Идентификатор : 1
Формат : AVC
Формат/Информация : Advanced Video Codec
Профиль формата : High@L4.1
Параметр CABAC формата : Да
Параметр ReFrames формата : 5 кадров
Идентификатор кодека : V_MPEG4/ISO/AVC
Продолжительность : 1 ч. 35 м.
Битрейт : 9059 Кбит/сек
Ширина : 1920 пикселей
Высота : 816 пикселей
Соотношение сторон : 2,35:1
Частота кадров : 23,976 кадра/сек
Цветовое пространство : YUV
Субдискретизация насыщенности : 4:2:0
Битовая глубина : 8 бит
Тип развёртки : Прогрессивная
Бит/(Пиксели*Кадры) : 0.241
Размер потока : 5,92 Гбайт (89%)
Библиотека кодирования : x264 core 120 r2120 0c7dab9
Настройки программы : cabac=1 / ref=5 / deblock=1:0:0 / analyse=0x3:0x133 / me=umh / subme=7 / psy=1 / psy_rd=1.00:0.00 / mixed_ref=1 / me_range=16 / chroma_me=1 / trellis=1 / 8x8dct=1 / cqm=0 / deadzone=21,11 / fast_pskip=0 / chroma_qp_offset=-2 / threads=12 / sliced_threads=0 / nr=0 / decimate=1 / interlaced=0 / bluray_compat=0 / constrained_intra=0 / bframes=3 / b_pyramid=2 / b_adapt=2 / b_bias=0 / direct=3 / weightb=1 / open_gop=0 / weightp=2 / keyint=250 / keyint_min=23 / scenecut=40 / intra_refresh=0 / rc_lookahead=50 / rc=2pass / mbtree=1 / bitrate=9059 / ratetol=1.0 / qcomp=0.60 / qpmin=0 / qpmax=69 / qpstep=4 / cplxblur=20.0 / qblur=0.5 / ip_ratio=1.40 / aq=1:1.00
Язык : English
Аудио #1
Идентификатор : 2
Формат : AC-3
Формат/Информация : Audio Coding 3
Расширение режима : CM (complete main)
Идентификатор кодека : A_AC3
Продолжительность : 1 ч. 35 м.
Вид битрейта : Постоянный
Битрейт : 192 Кбит/сек
Каналы : 2 канала
Расположение каналов : Front: L R
Частота : 48,0 КГц
Битовая глубина : 16 бит
Метод сжатия : С потерями
Размер потока : 131 Мбайт (2%)
Заголовок : vo
Язык : Russian
Аудио #2
Идентификатор : 3
Формат : DTS
Формат/Информация : Digital Theater Systems
Идентификатор кодека : A_DTS
Продолжительность : 1 ч. 35 м.
Вид битрейта : Постоянный
Битрейт : 755 Кбит/сек
Каналы : 6 каналов
Расположение каналов : Front: L C R, Side: L R, LFE
Частота : 48,0 КГц
Битовая глубина : 24 бит
Метод сжатия : С потерями
Размер потока : 515 Мбайт (8%)
Язык : English
Текст
Идентификатор : 4
Формат : UTF-8
Идентификатор кодека : S_TEXT/UTF8
Идентификатор кодека/Информация : UTF-8 Plain Text
Язык : English


pb.wtf



Скачать Список смертников через торрент http://i30.fastpic.ru/big/2011/1230/be/39af84d7123a99a8f1666d76da3216be.png Скачать фильм Список смертников через торрент бесплантно в хорошем качестве Описание: Поиздержавшийся киллер-фрилансер Джей соглашается на очередное дело, чтобы заработать на новое джакузи. Простое, на первый ... 8.8 10 11
Info! Золотая раздача, скачанное не засчитывается.
Торрент: Зарегистрирован [2015-06-25 11:06] · скачан: 104 раз
Статус: √ проверено
Размер: 10.94 GB
Как cкачать? Как скачать Список смертников через торрент | qTorrent

% Раздел Тема Автор DL S | L
Фильмы 2011 [ 1.46 GB ] Список смертников / Kill List [ 2011 HDRip ] GEKADOL Скачать
1 | 0

28-11-2019 20:33  

Отключить всю рекламу на сайте

05-01-2012 10:12 Список смертников Скачать торрент  

ппц...

Цитата:

киллер-фрилансер

pb.wtf



25-06-2015 12:34 Список смертников Скачать торрент  

Описание фильма на Кинопоиске:
Катастрофа, произошедшая в столице Украины, оставила на теле и в душе бывшего солдата британской армии Джея тяжелейшие шрамы. Жестокость и безжалостность становится новым, неожиданным для всех знавших Джея раньше, качеством личности. Он, примерный семьянин и любящий отец, становится наемным убийцей и вместе со своим новым партнером Галлом отправляется на первое задание. Постепенно страх и паранойя, окутавшие его сознание — погружает его в самые глубины тьмы.pb.wtf



11-07-2015 01:31 Список смертников Скачать торрент  

sergunka писал(а):

ппц...

Цитата:

киллер-фрилансер


ну всё верно, так в основном и бывает - а что вас смущает ?
или киллер должен на окладе сидеть и план выполнять по кол-ву человекоголов/месpb.wtf



    Дорогой пользователь! Огромная просьба, поблагодарите релизера, оцените раздачу и оставьте свои комментарий, если Вы скачали Список смертников через торрент бесплатно! Внесите свою лепту в развитие PiratBit!
    Комментировать посты могут только пользователи прошедшие не сложную регистрацию
    Показать сообщения:    

    Список смертников через торрент
    Скачать бесплатно Список смертников
    Список смертников скачать торрент
    Список смертников смотреть онлайн
    Cкачать фильм Список смертников бесплатно
    Список смертников скачать торрент в хорошем качестве
    Список смертников смотреть онлайн бесплатно в хорошем качестве


    Вы не можете начинать темы
    Вы не можете отвечать на сообщения
    Вы не можете редактировать свои сообщения
    Вы не можете удалять свои сообщения
    Вы не можете голосовать в опросах
    Вы не можете прикреплять файлы к сообщениям
    Вы можете скачивать файлы