Всегда рабочее зеркало без VPN и Proxy просто перед .vidak.icu напиши любое слово или цифру, Пример http://o25q.vidak.icu

MVO

MVO

1 сезон

1

1 сезон

iTunes

1 сезон

13

1 сезон

Deluxe

pack

Рекомендуем

Repack

30

ВАЖНО

RePack

MK11

RePack

jed

RePack

fifa19

RePack

RDR2

RePack

NEED FOR SPEED™ PAYBACK

Кинопоиск HD

6 сезон

 Острые козырьки 6 сезон

Все сериалы

все сериалы на PB.wtf

RePack

FAR CRY 5
  
Magnet ссылка

Список смертников / Kill List (Бен Уитли / Ben Wheatley) [ 2011 , Великобритания , ужасы, триллер, криминал , HDRip ]Профессиональный (многоголосый, закадровый) pb.wtf

Список смертников через торрент pb.wtf

Размер: 1.46 GB | Добавлен: 7 лет 1 мес. назад | Торрент скачан:186 раз
Смотреть онлайн Список смертников | Скачать    Ребята, помогите собрать деньги на оплату серверов!!!

31-12-2013 05:18 Список смертников Скачать торрент  

Список смертников / Kill List

Год выпуска: 2011
Страна: Великобритания
Жанр: ужасы, триллер, криминал
Продолжительность: 01:35:29
Перевод: Профессиональный (многоголосый, закадровый)
Субтитры: Нет

Режиссер: Бен Уитли / Ben Wheatley
Сценарий: Эми Джамп / Amy Jump, Бен Уитли / Ben Wheatley
Продюсер: Клер Джонс / Claire Jones, Эндрю Старк / Andrew Starke, Кэтерин Батлер / Katherine Butler, Элли Джиппс / Ally Gipps, Робин Гатч / Robin Gutch
Оператор: Лори Роуз / Laurie Rose
Композитор: Джим Уильямс / Jim Williams

Нил Мэскелл (Jay), МайАнна Бёринг (Shel), Гарри Симпсон (Sam), Майкл Смайли (Gal), Эмма Фрайер (Fiona), Струан Роджер (The Client), Эсме Фоли (Hotel Receptionist), Бен Кромптон (Justin), Джемма Лизе Тортон (Keira), Робин Хилл (Stuart), Зои Томас (Hotel Waitress), Гарет Танли (The Priest)

Бюджет: £500 000
Сборы в США: $29 063
Сборы в мире: $171 760

Мировая премьера: 12 марта 2011

Описание:Катастрофа, произошедшая в столице Украины, оставила на теле и в душе бывшего солдата британской армии Джея тяжелейшие шрамы. Жестокость и безжалостность становится новым, неожиданным для всех знавших Джея раньше, качеством личности. Он, примерный семьянин и любящий отец, становится наемным убийцей и вместе со своим новым партнером Галлом отправляется на первое задание. Постепенно страх и паранойя, окутавшие его сознание - погружает его в самые глубины тьмы.

Рейтинг
kinopoisk.ru: 5.809 (436)
imdb.com: 6.20 (16 666)

Качество: HDRip
Формат: AVI
Видео кодек: XviD
Аудио кодек: AC3
Видео: 1985 Кбит/сек, 720*304 (2,35:1), в 23,976 кадра/сек, MPEG-4 Visual (XviD)
Аудио:192 Кбит/сек, 48,0 КГц, 16 бит, 2 канала, AC-3


Общее
Кол-во : 284
Кол-во потоков такого типа : 1
Тип потока : General
Тип потока : Общее
Идентификатор типа потока : 0
Inform : AVI: 1,46 Гбайт, 1 ч. 35 м.
Кол-во видеопотоков : 1
Кол-во аудиопотоков : 1
Video_Format_List : MPEG-4 Visual
Video_Format_WithHint_List : MPEG-4 Visual (XviD)
Видеокодеки : XviD
Audio_Format_List : AC-3
Audio_Format_WithHint_List : AC-3
Аудиокодеки : AC3
Полное имя : H:ТОРРЕНТЫСписок.avi
Имя папки : H:ТОРРЕНТЫ
Имя файла : Список
Расширение : avi
Формат : AVI
Формат : AVI
Формат/Информация : Audio Video Interleave
Формат/Используется в : avi
Коммерческое название : AVI
Интернет-тип носителя : video/vnd.avi
Чередующаяся : Yes
Кодек : AVI
Кодек : AVI
Кодек/Информация : Audio Video Interleave
Кодек/Используется в : avi
Размер файла : 1565861888
Размер файла : 1,46 Гбайт
Размер файла : 1 Гбайт
Размер файла : 1,5 Гбайт
Размер файла : 1,46 Гбайт
Размер файла : 1,458 Гбайт
Продолжительность : 5729724
Продолжительность : 1 ч. 35 м.
Продолжительность : 1 ч. 35 м. 29 с. 724 мс.
Продолжительность : 1 ч. 35 м.
Продолжительность : 01:35:29.724
Общий поток : 2186300
Общий поток : 2186 Кбит/сек
Размер потока : 6810834
Размер потока : 6,50 Мбайт (0%)
Размер потока : 6 Мбайт
Размер потока : 6,5 Мбайт
Размер потока : 6,50 Мбайт
Размер потока : 6,495 Мбайт
Размер потока : 6,50 Мбайт (0%)
Пропорции потока : 0.00435
Дата файла : UTC 2013-12-31 01:02:05.294
Дата файла (местная) : 2013-12-31 08:02:05.294
Дата изменения файла : UTC 2013-12-31 02:53:37.690
Дата изменения файла (местная) : 2013-12-31 09:53:37.690
Программа кодирования : VirtualDubMod 1.5.10.3 | www.virtualdub-fr.org || (build 2550/release)
Библиотека кодирования : VirtualDubMod build 2550/release
Библиотека кодирования : VirtualDubMod build 2550/release

Видео
Кол-во : 271
Кол-во потоков такого типа : 1
Тип потока : Video
Тип потока : Видео
Идентификатор типа потока : 0
StreamOrder : 0
Inform : 1985 Кбит/сек, 720*304 (2,35:1), в 23,976 кадра/сек, MPEG-4 Visual (XviD) (Advanced [email protected]) (BVOP2)
Идентификатор : 0
Идентификатор : 0
Формат : MPEG-4 Visual
Коммерческое название : MPEG-4 Visual
Профиль формата : Advanced [email protected]
Настройки формата : BVOP2
Параметр BVOP формата : 2
Параметр BVOP формата : 2
Параметр QPel формата : No
Параметр QPel формата : Нет
Параметр GMC формата : 0
Параметр GMC формата : Без точки перехода
Параметр матрицы формата : Default (MPEG)
Параметр матрицы формата : Default (MPEG)
Интернет-тип носителя : video/MP4V-ES
Идентификатор кодека : XVID
Идентификатор кодека/Подсказка : XviD
Идентификатор кодека/Ссылка : http://mediaarea.net/XVID
Кодек : XVID
Кодек : XviD
Кодек/Семейство : MPEG-4V
Кодек/Информация : XviD project
Кодек/Ссылка : http://www.xvid.org/Downloads.15.0.html
Кодек/CC : XVID
Профиль кодека : Advanced [email protected]
Настройки кодека : BVOP
Параметр пакетного потока данных кодека : No
Параметр BVOP кодека : Yes
Параметр QPel кодека : No
Параметр GMC кодека : 0
Параметр GMC кодека : Без точки перехода
Параметр матрицы кодека : Default (MPEG)
Продолжительность : 5729724
Продолжительность : 1 ч. 35 м.
Продолжительность : 1 ч. 35 м. 29 с. 724 мс.
Продолжительность : 1 ч. 35 м.
Продолжительность : 01:35:29.724
Битрейт : 1984803
Битрейт : 1985 Кбит/сек
Ширина : 720
Ширина : 720 пикселей
Высота : 304
Высота : 304 пикселя
Пропорции пикселя : 1.000
Соотношение сторон : 2.368
Соотношение сторон : 2,35:1
Частота кадров : 23.976
Частота кадров : 23,976 кадра/сек
Счётчик кадров : 137376
Разрешение : 8
Разрешение : 8 бит
Колориметрия : 4:2:0
Цветовое пространство : YUV
Субдискретизация насыщенности : 4:2:0
Битовая глубина : 8
Битовая глубина : 8 бит
Тип развёртки : Progressive
Тип развёртки : Прогрессивная
Переплетение : PPF
Переплетение : Прогрессивная
Метод сжатия : Lossy
Метод сжатия : С потерями
Бит/(Пиксели*Кадры) : 0.378
Задержка : 0
Задержка : 00:00:00.000
Размер потока : 1421548334
Размер потока : 1,32 Гбайт (91%)
Размер потока : 1 Гбайт
Размер потока : 1,3 Гбайт
Размер потока : 1,32 Гбайт
Размер потока : 1,324 Гбайт
Размер потока : 1,32 Гбайт (91%)
Пропорции потока : 0.90784
Библиотека кодирования : XviD0050
Библиотека кодирования : XviD 1.2.1 (UTC 2008-12-04)
Библиотека кодирования/Имя : XviD
Библиотека кодирования/Version : 1.2.1
Библиотека кодирования/Дата : UTC 2008-12-04

Аудио
Кол-во : 244
Кол-во потоков такого типа : 1
Тип потока : Audio
Тип потока : Аудио
Идентификатор типа потока : 0
StreamOrder : 1
Inform : 192 Кбит/сек, 48,0 КГц, 16 бит, 2 канала, AC-3
Идентификатор : 1
Идентификатор : 1
Формат : AC-3
Формат/Информация : Audio Coding 3
Коммерческое название : AC-3
Расширение режима : CM (complete main)
Параметр Endianness формата : Big
Идентификатор кодека : 2000
Кодек : AC3
Кодек : AC3
Кодек/Семейство : AC3
Кодек/Информация : Dolby AC3
Кодек/CC : 2000
Продолжительность : 5729280
Продолжительность : 1 ч. 35 м.
Продолжительность : 1 ч. 35 м. 29 с. 280 мс.
Продолжительность : 1 ч. 35 м.
Продолжительность : 01:35:29.280
Вид битрейта : CBR
Вид битрейта : Постоянный
Битрейт : 192000
Битрейт : 192 Кбит/сек
Каналы : 2
Каналы : 2 канала
Расположение каналов : Front: L R
Расположение каналов : 2/0/0
Частота : 48000
Частота : 48,0 КГц
Количество образцов : 275005440
Разрешение : 16
Разрешение : 16 бит
Битовая глубина : 16
Битовая глубина : 16 бит
Метод сжатия : Lossy
Метод сжатия : С потерями
Задержка : 0
Задержка : 00:00:00.000
Задержка в оригинале : Stream
Задержка в оригинале : 'Сырой' поток
Задержка видео : 0
Задержка видео : 0
Размер потока : 137502720
Размер потока : 131 Мбайт (9%)
Размер потока : 131 Мбайт
Размер потока : 131 Мбайт
Размер потока : 131 Мбайт
Размер потока : 131,1 Мбайт
Размер потока : 131 Мбайт (9%)
Пропорции потока : 0.08781
Выравнивание : Split
Выравнивание : Разделение по промежуткам
Продолжительность промежутка : 1.00
Продолжительность промежутка : 42
Продолжительность промежутка : 42 мс. (1,00 видеокадр)
Время предзагрузки промежутка : 500
Время предзагрузки промежутка : 500 мс.
bsid : 4
dialnorm : -31
dialnorm/String : -31 dB
compr : -0.28
compr/String : -0.28 dB
dsurmod : 0
acmod : 2
lfeon : 0
dialnorm_Average : -31
dialnorm_Average/String : -31 dB
dialnorm_Minimum : -31
dialnorm_Minimum/String : -31 dB
dialnorm_Maximum : -31
dialnorm_Maximum/String : -31 dB
dialnorm_Count : 405
compr_Average : -0.28
compr_Average/String : -0.28 dB
compr_Minimum : -0.28
compr_Minimum/String : -0.28 dB
compr_Maximum : -0.28
compr_Maximum/String : -0.28 dB
compr_Count : 405


скриншот  скриншот  скриншот  скриншот  скриншот  скриншот  скриншот  скриншот  скриншот  



pb.wtf



Скачать Список смертников через торрент http://trueimages.ru/img/c3/01/b8812c25.jpg Скачать, смотреть онлайн Список смертников бесплантно в хорошем качестве Описание:Катастрофа, произошедшая в столице Украины, оставила на теле и в душе бывшего солдата британской армии Джея тяжелейшие шрамы. ... 8.8 10 16
Торрент: Зарегистрирован [2015-06-25 11:04] · скачан: 186 раз
Статус: √ проверено
Размер: 1.46 GB
Как cкачать? Как скачать Список смертников через торрент | UTorrent

% Раздел Тема Автор DL S | L
Фильмы [HD 720p, 1080p] (Хороший звук DUB, MVO) [ 10.94 GB ] Список смертников / Kill List [2011 BDRip 1080p] Shmel Скачать
1 | 0

28-11-2019 20:33  

Отключить вcю реклaмy на сайте

25-06-2015 11:13 Список смертников Скачать торрент  

Описание:Катастрофа, произошедшая в столице Украины, оставила на теле и в душе бывшего солдата британской армии Джея... - скачаю посмеюсь!)))pb.wtf



25-06-2015 12:29 Список смертников Скачать торрент  

AlexBanggg писал(а):

Описание:Катастрофа, произошедшая в столице Украины, оставила на теле и в душе бывшего солдата британской армии Джея... - скачаю посмеюсь!)))

)))))))pb.wtf



26-06-2015 20:44 Список смертников Скачать торрент  

сборы за фильм говорят сами что это бред!pb.wtf



    Дорогой пользователь! Огромная просьба, поблагодарите релизера, оцените раздачу и оставьте свои комментарий, если Вы скачали Список смертников через торрент бесплатно!
    Комментировать посты могут только пользователи прошедшие не сложную регистрацию
    Показать сообщения:    

    Список смертников через торрент
    Скачать бесплатно Список смертников
    Список смертников скачать торрент
    Список смертников смотреть онлайн
    Cкачать фильм Список смертников бесплатно
    Список смертников скачать торрент в хорошем качестве
    Список смертников смотреть онлайн бесплатно в хорошем качестве


    Вы не можете начинать темы
    Вы не можете отвечать на сообщения
    Вы не можете редактировать свои сообщения
    Вы не можете удалять свои сообщения
    Вы не можете голосовать в опросах
    Вы не можете прикреплять файлы к сообщениям
    Вы можете скачивать файлы