Ссылка на приватное зеркало нашего сайта всего за 1$. Внимание количество ограничено!!!

2 сезон

iTunes

1 сезон

1

2 сезон

2 сезон

iTunes

1 сезон

RePack

30

Ultimate

ВАЖНО

ИГРА 18+

pack

RePack

MK11
pack

Забери бонус

RePack

jed

!!Акция!!

Alien_Rage

RePack

fifa19

RePack

Assassins Creed: Odyssey

RePack

NEED FOR SPEED™ PAYBACK

4 сезон

9 сезон

Бесстыжие 9 сезон

Все сериалы

все сериалы на PB.wtf

RePack

FAR CRY 5
  

Мужики - Охотники / Daddy Chasers (Деннис Дуган / Dennis Dugan) [2015, США, Gang Bang,SiteRip-AVC ,Оригинальный pb.wtf

Мужики - Охотники через торрент pb.wtf

Размер: 789 MB | Добавлен: 5 лет 5 мес. назад | Торрент скачан:301 раз
Скачать  

25-06-2015 11:09 Мужики - Охотники Скачать торрент  

Мужики - Охотники / Daddy Chasers

Год выпуска: 2015
Страна: США
Жанр: Gang Bang
Продолжительность: 01:17:07
Перевод: Оригинальный
Режиссер: Catalina
В ролях: Sam Truitt, Trenton Ducati, Cody Avalon, David Benjamin, Jake Jennings, Jason Phoenix, Logan Vaughn, Trent Ferris
Описание:
Daddy Chasers; porn superstars Trenton Ducati, Sam Truitt, Jason Phoenix and many more studs get themselves into some irresistible predicaments. Trenton's monster cock, Jason's gorgeous innocent face, and Sam's irresistible eyes figure in with loads of fucking, sucking, flip-fucking, rimming, fingering, dildo-play, and muscle worship. Watch as horned up twinks with big cocks and eager asses go looking for daddy
Качество: SiteRip-AVC
Формат: MPEG-4
Видео кодек: AVC
Аудио кодек:AAC LC
Видео: AVC, 852x480 (16:9), 1326 kbps, 29,970 fps, 0,108 bpp
Аудио: AAC LC / 2.0 / 48 kHz / 96 kbps /
General
Complete name : D:\torrent\Daddy Chasers.mp4
Format : MPEG-4
Format profile : Base Media / Version 2
Codec ID : mp42
File size : 789 MiB
Duration : 1h 17mn
Overall bit rate mode : Variable
Overall bit rate : 1 430 Kbps
Movie name : C1R-DaddyChasers-Scene1-2
Encoded date : UTC 2015-05-29 08:15:55
Tagged date : UTC 2015-05-29 08:15:55
Writing application : HandBrake 7031svn 2015033101

Video
ID : 1
Format : AVC
Format/Info : Advanced Video Codec
Format profile : Main@L4.0
Format settings, CABAC : Yes
Format settings, ReFrames : 4 frames
Codec ID : avc1
Codec ID/Info : Advanced Video Coding
Duration : 1h 17mn
Bit rate : 1 327 Kbps
Width : 852 pixels
Height : 480 pixels
Display aspect ratio : 16:9
Frame rate mode : Variable
Frame rate : 29.970 fps
Minimum frame rate : 29.412 fps
Maximum frame rate : 30.303 fps
Color space : YUV
Chroma subsampling : 4:2:0
Bit depth : 8 bits
Scan type : Progressive
Bits/(Pixel*Frame) : 0.108
Stream size : 732 MiB (93%)
Writing library : x264 core 142 r2389 956c8d8
Encoding settings : cabac=1 / ref=1 / deblock=1:0:0 / analyse=0x1:0x111 / me=hex / subme=2 / psy=1 / psy_rd=1.00:0.00 / mixed_ref=0 / me_range=16 / chroma_me=1 / trellis=0 / 8x8dct=0 / cqm=0 / deadzone=21,11 / fast_pskip=1 / chroma_qp_offset=0 / threads=1 / lookahead_threads=1 / sliced_threads=0 / nr=0 / decimate=1 / interlaced=0 / bluray_compat=0 / constrained_intra=0 / bframes=3 / b_pyramid=2 / b_adapt=1 / b_bias=0 / direct=1 / weightb=1 / open_gop=0 / weightp=1 / keyint=300 / keyint_min=30 / scenecut=40 / intra_refresh=0 / rc_lookahead=10 / rc=crf / mbtree=1 / crf=20.0 / qcomp=0.60 / qpmin=0 / qpmax=69 / qpstep=4 / vbv_maxrate=20000 / vbv_bufsize=25000 / crf_max=0.0 / nal_hrd=none / filler=0 / ip_ratio=1.40 / aq=1:1.00
Encoded date : UTC 2015-05-29 08:15:55
Tagged date : UTC 2015-05-29 08:15:55
Color primaries : BT.601-6 525, BT.1358 525, BT.1700 NTSC, SMPTE 170M
Transfer characteristics : BT.709-5, BT.1361
Matrix coefficients : BT.601-6 525, BT.1358 525, BT.1700 NTSC, SMPTE 170M

Audio
ID : 2
Format : AAC
Format/Info : Advanced Audio Codec
Format profile : LC
Codec ID : 40
Duration : 1h 17mn
Bit rate mode : Variable
Bit rate : 96.0 Kbps
Channel(s) : 2 channels
Channel positions : Front: L R
Sampling rate : 48.0 KHz
Compression mode : Lossy
Stream size : 53.0 MiB (7%)
Title : Stereo
Encoded date : UTC 2015-05-29 08:15:55
Tagged date : UTC 2015-05-29 08:15:55
pb.wtf



pack Скачать Мужики - Охотники через торрент http://pic.kartinco.top/images/11/arboz.jpg Скачать фильм Мужики - Охотники через торрент бесплантно в хорошем качестве Описание: Daddy Chasers; porn superstars Trenton Ducati, Sam Truitt, Jason Phoenix and many more studs get themselves into some ... 9.8 10 13
Торрент: Зарегистрирован [2015-06-25 11:09] · скачан: 301 раз
Статус: √ проверено
Размер: 789 MB
Как cкачать? Как скачать Мужики - Охотники через торрент | qTorrent

28-11-2019 20:33  

Отключить всю рекламу на сайте

    Дорогой пользователь! Огромная просьба, поблагодарите релизера, оцените раздачу и оставьте свои комментарий, если Вы скачали Мужики - Охотники через торрент бесплатно! Внесите свою лепту в развитие PiratBit!
    Комментировать посты могут только пользователи прошедшие не сложную регистрацию
    Показать сообщения:    

    Мужики - Охотники через торрент
    Скачать бесплатно Мужики - Охотники
    Мужики - Охотники скачать торрент
    Мужики - Охотники смотреть онлайн
    Cкачать фильм Мужики - Охотники бесплатно
    Мужики - Охотники скачать торрент в хорошем качестве
    Мужики - Охотники смотреть онлайн бесплатно в хорошем качестве


    Вы не можете начинать темы
    Вы не можете отвечать на сообщения
    Вы не можете редактировать свои сообщения
    Вы не можете удалять свои сообщения
    Вы не можете голосовать в опросах
    Вы не можете прикреплять файлы к сообщениям
    Вы можете скачивать файлы