Ссылка на приватное зеркало всего за 1$. Внимание количество ограничено!!!

iTunes

iTunes

iTunes

1

iTunes

iTunes

iTunes

WEBRip

iTunes

30
pack

$ от Little Big

ВАЖНО

!!Акция!!

Alien_RageХит недели

RePack

Resident Evil 21

ИГРА 18+

pack

RePack

jed

!!Акция!!

Alien_Rage

RePack

fifa19

RePack

Assassins Creed: Odyssey

RePack

NEED FOR SPEED™ PAYBACK

4 сезон

9 сезон

Бесстыжие 9 сезон

Все сериалы

все сериалы на PB.wtf

RePack

FAR CRY 5
  

Знак почёта / Badge of Honor (Агустин ) [2015, триллер, драма, криминал, WEB-DLRip, Профессиональный (многоголосый) pb.wtf

Знак почёта через торрент pb.wtf

Размер: 1.46 GB | Добавлен: 5 лет 1 мес. назад | Торрент скачан:712 раз
Скачать  

25-06-2015 13:57 Знак почёта Скачать торрент  


Знак почёта / Badge of Honor


ИНФОРМАЦИЯ:
Год выпуска: 2015
Страна: США
Жанр: триллер, драма, криминал
Продолжительность: 01:38:11
Перевод: Профессиональный (многоголосый) [Официальный звук]
Режиссер: Агустин

В Ролях:


Мартин Шин (Captain Richards), Мена Сувари (Jessica Dawson), Джесси Брэдфорд (Mike Gallo), Локлин Манро (David Miles), Наташа Хенстридж (Rebecca Miles), Хэйли Дафф (Brittany Gallo), Патрик Малдун (Aaron Wilde), Алекс Паунович (Samuel), Трэвис Милн (Jacob), Chelsea Baker (Screaming Girl), Риз Александр (Husband), Алекс Бармия (Victor)

Описание:
Двое детективов из отдела по борьбе с наркотиками оказываются втянуты в бурное расследование возглавляемое детективом из министерства внутренних дел. Все начинается из-за того, что во время полицейской облавы застрелили ребенка...

  • Мировая премьера:26 января 2015

    ТЕХ.ДАННЫЕ:
    Качество: WEB-DLRip
    Формат: AVI
    Видео кодек: XviD
    Аудио кодек: AC3
    Видео: XviD, 720x400 (16:9), 1841 kbps, 23,976 fps, 0,267 bpp
    Аудио: AC3 / 2.0 / 48 kHz / 192 kbps / 16 bit



    Код:

    General
    Complete name                            : D:\Торенты\Znak.po4eta.2015.P.WEBDLRip.avi
    Format                                   : AVI
    Format/Info                              : Audio Video Interleave
    File size                                : 1.46 GiB
    Duration                                 : 1h 38mn
    Overall bit rate                         : 2 126 Kbps
    Writing application                      : VirtualDubMod 1.5.10.2 (build 2540/release)
    Writing library                          : VirtualDubMod build 2540/release

    Video
    ID                                       : 0
    Format                                   : MPEG-4 Visual
    Format profile                           : Advanced Simple@L5
    Format settings, BVOP                    : 2
    Format settings, QPel                    : No
    Format settings, GMC                     : No warppoints
    Format settings, Matrix                  : Default (MPEG)
    Codec ID                                 : XVID
    Codec ID/Hint                            : XviD
    Duration                                 : 1h 38mn
    Bit rate                                 : 1 841 Kbps
    Width                                    : 720 pixels
    Height                                   : 400 pixels
    Display aspect ratio                     : 16:9
    Frame rate                               : 23.976 fps
    Color space                              : YUV
    Chroma subsampling                       : 4:2:0
    Bit depth                                : 8 bits
    Scan type                                : Progressive
    Compression mode                         : Lossy
    Bits/(Pixel*Frame)                       : 0.267
    Stream size                              : 1.26 GiB (87%)
    Writing library                          : XviD 1.2.1 (UTC 2008-12-04)

    Audio
    ID                                       : 1
    Format                                   : AC-3
    Format/Info                              : Audio Coding 3
    Mode extension                           : CM (complete main)
    Codec ID                                 : 2000
    Duration                                 : 1h 38mn
    Bit rate mode                            : Constant
    Bit rate                                 : 192 Kbps
    Channel(s)                               : 2 channels
    Channel positions                        : Front: L R
    Sampling rate                            : 48.0 KHz
    Bit depth                                : 16 bits
    Compression mode                         : Lossy
    Stream size                              : 135 MiB (9%)
    Alignment                                : Split accross interleaves

    Скриншоты:




    © Оформление by Ворон
    pb.wtf



  • Скачать Знак почёта через торрент http://pic.kartinco.top/images/6/ordi9.jpg Скачать фильм Знак почёта через торрент бесплантно в хорошем качестве Описание: Двое детективов из отдела по борьбе с наркотиками оказываются втянуты в бурное расследование возглавляемое детективом из ... 9.1 10 25
    Торрент: Зарегистрирован [2015-06-25 13:57] · скачан: 712 раз
    Статус: √ проверено
    Размер: 1.46 GB
    Как cкачать? Как скачать Знак почёта через торрент | qTorrent

    28-11-2019 20:33  

    Отключить всю рекламу на сайте

    25-06-2015 14:54 Знак почёта Скачать торрент  

    Что за режиссер такой модный(?), первый раз вижу...pb.wtf



    25-06-2015 15:16 Знак почёта Скачать торрент  

    бейджик честиpb.wtf



    25-06-2015 16:37 Знак почёта Скачать торрент  

    Ten0N писал(а):

    Что за режиссер такой модный(?), первый раз вижу...

    Это наверное тот самый "Ах мой милый Агустин..."pb.wtf



    26-06-2015 06:34 Знак почёта Скачать торрент  

    korotkij писал(а):

    Ten0N писал(а):

    Что за режиссер такой модный(?), первый раз вижу...

    Это наверное тот самый "Ах мой милый Агустин..."

    жених Рики Мартинаpb.wtf



    30-06-2015 09:15 Знак почёта Скачать торрент  

    почётная грамота))))))))и молоко за вредность))))

    sergunka писал(а):

    бейджик чести

    pb.wtf



      Дорогой пользователь! Огромная просьба, поблагодарите релизера, оцените раздачу и оставьте свои комментарий, если Вы скачали Знак почёта через торрент бесплатно! Внесите свою лепту в развитие PiratBit!
      Комментировать посты могут только пользователи прошедшие не сложную регистрацию
      Показать сообщения:    

      Знак почёта через торрент
      Скачать бесплатно Знак почёта
      Знак почёта скачать торрент
      Знак почёта смотреть онлайн
      Cкачать фильм Знак почёта бесплатно
      Знак почёта скачать торрент в хорошем качестве
      Знак почёта смотреть онлайн бесплатно в хорошем качестве


      Вы не можете начинать темы
      Вы не можете отвечать на сообщения
      Вы не можете редактировать свои сообщения
      Вы не можете удалять свои сообщения
      Вы не можете голосовать в опросах
      Вы не можете прикреплять файлы к сообщениям
      Вы можете скачивать файлы